  0
SECTION
  2
HEADER
  9
$ACADVER
  1
AC1018
  9
$ACADMAINTVER
 70
     0
  9
$DWGCODEPAGE
  3
ANSI_1252
  9
$INSBASE
 10
0.0
 20
0.0
 30
0.0
  9
$EXTMIN
 10
-88.79999965605481
 20
318.7723336708282
 30
0.0
  9
$EXTMAX
 10
208.2000003439433
 20
528.7723336708283
 30
0.0
  9
$LIMMIN
 10
0.0
 20
0.0
  9
$LIMMAX
 10
12.0
 20
9.0
  9
$ORTHOMODE
 70
     0
  9
$REGENMODE
 70
     1
  9
$FILLMODE
 70
     1
  9
$QTEXTMODE
 70
     0
  9
$MIRRTEXT
 70
     1
  9
$LTSCALE
 40
1.0
  9
$ATTMODE
 70
     1
  9
$TEXTSIZE
 40
0.2
  9
$TRACEWID
 40
0.05
  9
$TEXTSTYLE
  7
Standard
  9
$CLAYER
  8
0
  9
$CELTYPE
  6
ByLayer
  9
$CECOLOR
 62
   256
  9
$CELTSCALE
 40
1.0
  9
$DISPSILH
 70
     0
  9
$DIMSCALE
 40
1.0
  9
$DIMASZ
 40
0.18
  9
$DIMEXO
 40
0.0625
  9
$DIMDLI
 40
0.38
  9
$DIMRND
 40
0.0
  9
$DIMDLE
 40
0.0
  9
$DIMEXE
 40
0.18
  9
$DIMTP
 40
0.0
  9
$DIMTM
 40
0.0
  9
$DIMTXT
 40
0.18
  9
$DIMCEN
 40
0.09
  9
$DIMTSZ
 40
0.0
  9
$DIMTOL
 70
     0
  9
$DIMLIM
 70
     0
  9
$DIMTIH
 70
     1
  9
$DIMTOH
 70
     1
  9
$DIMSE1
 70
     0
  9
$DIMSE2
 70
     0
  9
$DIMTAD
 70
     0
  9
$DIMZIN
 70
     0
  9
$DIMBLK
  1

  9
$DIMASO
 70
     1
  9
$DIMSHO
 70
     1
  9
$DIMPOST
  1

  9
$DIMAPOST
  1

  9
$DIMALT
 70
     0
  9
$DIMALTD
 70
     2
  9
$DIMALTF
 40
25.4
  9
$DIMLFAC
 40
1.0
  9
$DIMTOFL
 70
     0
  9
$DIMTVP
 40
0.0
  9
$DIMTIX
 70
     0
  9
$DIMSOXD
 70
     0
  9
$DIMSAH
 70
     0
  9
$DIMBLK1
  1

  9
$DIMBLK2
  1

  9
$DIMSTYLE
  2
Standard
  9
$DIMCLRD
 70
     0
  9
$DIMCLRE
 70
     0
  9
$DIMCLRT
 70
     0
  9
$DIMTFAC
 40
1.0
  9
$DIMGAP
 40
0.09
  9
$DIMJUST
 70
     0
  9
$DIMSD1
 70
     0
  9
$DIMSD2
 70
     0
  9
$DIMTOLJ
 70
     1
  9
$DIMTZIN
 70
     0
  9
$DIMALTZ
 70
     0
  9
$DIMALTTZ
 70
     0
  9
$DIMUPT
 70
     0
  9
$DIMDEC
 70
     4
  9
$DIMTDEC
 70
     4
  9
$DIMALTU
 70
     2
  9
$DIMALTTD
 70
     2
  9
$DIMTXSTY
  7
Standard
  9
$DIMAUNIT
 70
     0
  9
$DIMADEC
 70
     0
  9
$DIMALTRND
 40
0.0
  9
$DIMAZIN
 70
     0
  9
$DIMDSEP
 70
    46
  9
$DIMATFIT
 70
     3
  9
$DIMFRAC
 70
     0
  9
$DIMLDRBLK
  1

  9
$DIMLUNIT
 70
     2
  9
$DIMLWD
 70
    -2
  9
$DIMLWE
 70
    -2
  9
$DIMTMOVE
 70
     0
  9
$LUNITS
 70
     2
  9
$LUPREC
 70
     4
  9
$SKETCHINC
 40
0.1
  9
$FILLETRAD
 40
0.5
  9
$AUNITS
 70
     0
  9
$AUPREC
 70
     0
  9
$MENU
  1
.
  9
$ELEVATION
 40
0.0
  9
$PELEVATION
 40
0.0
  9
$THICKNESS
 40
0.0
  9
$LIMCHECK
 70
     0
  9
$CHAMFERA
 40
0.5
  9
$CHAMFERB
 40
0.5
  9
$CHAMFERC
 40
1.0
  9
$CHAMFERD
 40
0.0
  9
$SKPOLY
 70
     0
  9
$TDCREATE
 40
2458197.573933843
  9
$TDUCREATE
 40
2458197.532267176
  9
$TDUPDATE
 40
2458197.573934386
  9
$TDUUPDATE
 40
2458197.53226772
  9
$TDINDWG
 40
0.0000000116
  9
$TDUSRTIMER
 40
0.0000000116
  9
$USRTIMER
 70
     1
  9
$ANGBASE
 50
0.0
  9
$ANGDIR
 70
     0
  9
$PDMODE
 70
     0
  9
$PDSIZE
 40
0.0
  9
$PLINEWID
 40
0.0
  9
$SPLFRAME
 70
     0
  9
$SPLINETYPE
 70
     6
  9
$SPLINESEGS
 70
     8
  9
$HANDSEED
  5
29C
  9
$SURFTAB1
 70
     6
  9
$SURFTAB2
 70
     6
  9
$SURFTYPE
 70
     6
  9
$SURFU
 70
     6
  9
$SURFV
 70
     6
  9
$UCSBASE
  2

  9
$UCSNAME
  2

  9
$UCSORG
 10
0.0
 20
0.0
 30
0.0
  9
$UCSXDIR
 10
1.0
 20
0.0
 30
0.0
  9
$UCSYDIR
 10
0.0
 20
1.0
 30
0.0
  9
$UCSORTHOREF
  2

  9
$UCSORTHOVIEW
 70
     0
  9
$UCSORGTOP
 10
0.0
 20
0.0
 30
0.0
  9
$UCSORGBOTTOM
 10
0.0
 20
0.0
 30
0.0
  9
$UCSORGLEFT
 10
0.0
 20
0.0
 30
0.0
  9
$UCSORGRIGHT
 10
0.0
 20
0.0
 30
0.0
  9
$UCSORGFRONT
 10
0.0
 20
0.0
 30
0.0
  9
$UCSORGBACK
 10
0.0
 20
0.0
 30
0.0
  9
$PUCSBASE
  2

  9
$PUCSNAME
  2

  9
$PUCSORG
 10
0.0
 20
0.0
 30
0.0
  9
$PUCSXDIR
 10
1.0
 20
0.0
 30
0.0
  9
$PUCSYDIR
 10
0.0
 20
1.0
 30
0.0
  9
$PUCSORTHOREF
  2

  9
$PUCSORTHOVIEW
 70
     0
  9
$PUCSORGTOP
 10
0.0
 20
0.0
 30
0.0
  9
$PUCSORGBOTTOM
 10
0.0
 20
0.0
 30
0.0
  9
$PUCSORGLEFT
 10
0.0
 20
0.0
 30
0.0
  9
$PUCSORGRIGHT
 10
0.0
 20
0.0
 30
0.0
  9
$PUCSORGFRONT
 10
0.0
 20
0.0
 30
0.0
  9
$PUCSORGBACK
 10
0.0
 20
0.0
 30
0.0
  9
$USERI1
 70
     0
  9
$USERI2
 70
     0
  9
$USERI3
 70
     0
  9
$USERI4
 70
     0
  9
$USERI5
 70
     0
  9
$USERR1
 40
18.1
  9
$USERR2
 40
0.0
  9
$USERR3
 40
0.0
  9
$USERR4
 40
0.0
  9
$USERR5
 40
0.0
  9
$WORLDVIEW
 70
     1
  9
$SHADEDGE
 70
     3
  9
$SHADEDIF
 70
    70
  9
$TILEMODE
 70
     1
  9
$MAXACTVP
 70
    64
  9
$PINSBASE
 10
0.0
 20
0.0
 30
0.0
  9
$PLIMCHECK
 70
     0
  9
$PEXTMIN
 10
1.00000000000000E+20
 20
1.00000000000000E+20
 30
1.00000000000000E+20
  9
$PEXTMAX
 10
-1.00000000000000E+20
 20
-1.00000000000000E+20
 30
-1.00000000000000E+20
  9
$PLIMMIN
 10
0.0
 20
0.0
  9
$PLIMMAX
 10
12.0
 20
9.0
  9
$UNITMODE
 70
     0
  9
$VISRETAIN
 70
     1
  9
$PLINEGEN
 70
     0
  9
$PSLTSCALE
 70
     1
  9
$TREEDEPTH
 70
  3020
  9
$CMLSTYLE
  2
Standard
  9
$CMLJUST
 70
     0
  9
$CMLSCALE
 40
1.0
  9
$PROXYGRAPHICS
 70
     1
  9
$MEASUREMENT
 70
     1
  9
$CELWEIGHT
370
    -1
  9
$ENDCAPS
280
     0
  9
$JOINSTYLE
280
     0
  9
$LWDISPLAY
290
     0
  9
$INSUNITS
 70
     4
  9
$HYPERLINKBASE
  1

  9
$STYLESHEET
  1

  9
$XEDIT
290
     1
  9
$CEPSNTYPE
380
     0
  9
$PSTYLEMODE
290
     1
  9
$FINGERPRINTGUID
  2
{2E044CB6-D8ED-4744-B614-CF4DA2B8F679}
  9
$VERSIONGUID
  2
{FAEB1C32-E019-11D5-929B-00C0DF256EC4}
  9
$EXTNAMES
290
     1
  9
$PSVPSCALE
 40
0.0
  9
$OLESTARTUP
290
     0
  9
$SORTENTS
280
   127
  9
$INDEXCTL
280
     0
  9
$HIDETEXT
280
     1
  9
$XCLIPFRAME
290
     0
  9
$HALOGAP
280
     0
  9
$OBSCOLOR
 70
   257
  9
$OBSLTYPE
280
     0
  9
$INTERSECTIONDISPLAY
280
     0
  9
$INTERSECTIONCOLOR
 70
   257
  9
$DIMASSOC
280
     2
  9
$PROJECTNAME
  1

  0
ENDSEC
  0
SECTION
  2
CLASSES
  0
CLASS
  1
ACDBDICTIONARYWDFLT
  2
AcDbDictionaryWithDefault
  3
ObjectDBX Classes
 90
        0
 91
        4
280
     0
281
     0
  0
CLASS
  1
VISUALSTYLE
  2
AcDbVisualStyle
  3
ObjectDBX Classes
 90
     4095
 91
        4
280
     0
281
     0
  0
CLASS
  1
MATERIAL
  2
AcDbMaterial
  3
ObjectDBX Classes
 90
     1153
 91
        4
280
     0
281
     0
  0
ENDSEC
  0
SECTION
  2
TABLES
  0
TABLE
  2
VPORT
  5
8
330
0
100
AcDbSymbolTable
 70
     1
  0
VPORT
  5
29
330
8
100
AcDbSymbolTableRecord
100
AcDbViewportTableRecord
  2
*Active
 70
     0
 10
0.0
 20
0.0
 11
1.0
 21
1.0
 12
59.70000034394424
 22
423.7723336708282
 13
0.0
 23
0.0
 14
0.5
 24
0.5
 15
0.5
 25
0.5
 16
0.0
 26
0.0
 36
1.0
 17
0.0
 27
0.0
 37
0.0
 40
231.0000000000001
 41
1.60267857142857
 42
50.0
 43
0.0
 44
0.0
 50
0.0
 51
0.0
 71
     0
 72
   100
 73
     1
 74
     3
 75
     0
 76
     0
 77
     0
 78
     0
281
     0
 65
     1
110
0.0
120
0.0
130
0.0
111
1.0
121
0.0
131
0.0
112
0.0
122
1.0
132
0.0
 79
     0
146
0.0
  0
ENDTAB
  0
TABLE
  2
LTYPE
  5
5
330
0
100
AcDbSymbolTable
 70
     8
  0
LTYPE
  5
14
330
5
100
AcDbSymbolTableRecord
100
AcDbLinetypeTableRecord
  2
ByBlock
 70
     0
  3

 72
    65
 73
     0
 40
0.0
  0
LTYPE
  5
15
330
5
100
AcDbSymbolTableRecord
100
AcDbLinetypeTableRecord
  2
ByLayer
 70
     0
  3

 72
    65
 73
     0
 40
0.0
  0
LTYPE
  5
16
330
5
100
AcDbSymbolTableRecord
100
AcDbLinetypeTableRecord
  2
Continuous
 70
     0
  3
Solid line
 72
    65
 73
     0
 40
0.0
  0
LTYPE
  5
3F
330
5
100
AcDbSymbolTableRecord
100
AcDbLinetypeTableRecord
  2
DASHED
 70
     0
  3
Dashed
 72
    65
 73
     2
 40
15.0
 49
7.0
 74
     0
 49
-8.0
 74
     0
  0
LTYPE
  5
40
330
5
100
AcDbSymbolTableRecord
100
AcDbLinetypeTableRecord
  2
DOTTED
 70
     0
  3
Dotted
 72
    65
 73
     2
 40
1.0
 49
0.0
 74
     0
 49
-1.0
 74
     0
  0
LTYPE
  5
41
330
5
100
AcDbSymbolTableRecord
100
AcDbLinetypeTableRecord
  2
DOT_CENTER
 70
     0
  3
Dot_Center
 72
    65
 73
     4
 40
14.0
 49
12.0
 74
     0
 49
-1.0
 74
     0
 49
0.0
 74
     0
 49
-1.0
 74
     0
  0
LTYPE
  5
42
330
5
100
AcDbSymbolTableRecord
100
AcDbLinetypeTableRecord
  2
LONG_DASHED
 70
     0
  3
Long_Dashed
 72
    65
 73
     2
 40
15.0
 49
10.0
 74
     0
 49
-5.0
 74
     0
  0
LTYPE
  5
43
330
5
100
AcDbSymbolTableRecord
100
AcDbLinetypeTableRecord
  2
DASH_CENTER
 70
     0
  3
Dash_Center
 72
    65
 73
     4
 40
14.0
 49
11.0
 74
     0
 49
-1.0
 74
     0
 49
1.0
 74
     0
 49
-1.0
 74
     0
  0
LTYPE
  5
44
330
5
100
AcDbSymbolTableRecord
100
AcDbLinetypeTableRecord
  2
PHANTOM
 70
     0
  3
Phantom
 72
    65
 73
     6
 40
13.0
 49
10.0
 74
     0
 49
-1.0
 74
     0
 49
0.0
 74
     0
 49
-1.0
 74
     0
 49
0.0
 74
     0
 49
-1.0
 74
     0
  0
LTYPE
  5
45
330
5
100
AcDbSymbolTableRecord
100
AcDbLinetypeTableRecord
  2
CENTER_DASH_DASH
 70
     0
  3
Center_Dash_Dash
 72
    65
 73
     6
 40
14.0
 49
9.0
 74
     0
 49
-1.0
 74
     0
 49
1.0
 74
     0
 49
-1.0
 74
     0
 49
1.0
 74
     0
 49
-1.0
 74
     0
  0
ENDTAB
  0
TABLE
  2
LAYER
  5
2
330
0
100
AcDbSymbolTable
 70
     2
  0
LAYER
  5
10
330
2
100
AcDbSymbolTableRecord
100
AcDbLayerTableRecord
  2
0
 70
     0
 62
     7
  6
Continuous
370
    -3
390
F
  0
LAYER
  5
46
330
2
100
AcDbSymbolTableRecord
100
AcDbLayerTableRecord
  2
1
 70
     0
 62
     7
  6
Continuous
370
    -3
390
F
  0
ENDTAB
  0
TABLE
  2
STYLE
  5
3
330
0
100
AcDbSymbolTable
 70
     5
  0
STYLE
  5
11
330
3
100
AcDbSymbolTableRecord
100
AcDbTextStyleTableRecord
  2
Standard
 70
     0
 40
0.0
 41
1.0
 50
0.0
 71
     0
 42
0.2
  3
txt
  4

  0
STYLE
  5
99
330
3
100
AcDbSymbolTableRecord
100
AcDbTextStyleTableRecord
  2
CONVERTER_11
 70
     0
 40
0.0
 41
0.9
 50
0.0
 71
     0
 42
0.2
  3
txt.shx
  4

  0
STYLE
  5
237
330
3
100
AcDbSymbolTableRecord
100
AcDbTextStyleTableRecord
  2
CONVERTER_12
 70
     0
 40
0.0
 41
0.81
 50
0.0
 71
     0
 42
0.2
  3
txt.shx
  4

  0
STYLE
  5
24D
330
3
100
AcDbSymbolTableRecord
100
AcDbTextStyleTableRecord
  2
CONVERTER_13
 70
     0
 40
0.0
 41
0.72
 50
0.0
 71
     0
 42
0.2
  3
txt.shx
  4

  0
STYLE
  5
250
330
3
100
AcDbSymbolTableRecord
100
AcDbTextStyleTableRecord
  2
CONVERTER_14
 70
     0
 40
0.0
 41
0.855
 50
0.0
 71
     0
 42
0.2
  3
txt.shx
  4

  0
ENDTAB
  0
TABLE
  2
VIEW
  5
6
330
0
100
AcDbSymbolTable
 70
     0
  0
ENDTAB
  0
TABLE
  2
UCS
  5
7
330
0
100
AcDbSymbolTable
 70
     0
  0
ENDTAB
  0
TABLE
  2
APPID
  5
9
330
0
100
AcDbSymbolTable
 70
     1
  0
APPID
  5
12
330
9
100
AcDbSymbolTableRecord
100
AcDbRegAppTableRecord
  2
ACAD
 70
     0
  0
ENDTAB
  0
TABLE
  2
DIMSTYLE
  5
A
330
0
100
AcDbSymbolTable
 70
     4
100
AcDbDimStyleTable
  0
DIMSTYLE
105
27
330
A
100
AcDbSymbolTableRecord
100
AcDbDimStyleTableRecord
  2
Standard
 70
     0
178
     0
340
11
  0
DIMSTYLE
105
B7
102
{ACAD_REACTORS
330
B8
102
}
330
A
100
AcDbSymbolTableRecord
100
AcDbDimStyleTableRecord
  2
ME10_DIM_10
 70
     0
 41
3.5
 42
0.0
 44
1.5
 73
     0
 74
     0
 77
     1
 78
     8
140
3.5
147
1.5
172
     1
173
     1
174
     1
175
     1
176
     2
177
     2
271
     1
178
     3
271
     1
340
99
  0
DIMSTYLE
105
C2
102
{ACAD_REACTORS
330
C3
102
}
330
A
100
AcDbSymbolTableRecord
100
AcDbDimStyleTableRecord
  2
ME10_DIM_11
 70
     0
 41
3.5
 42
0.0
 44
1.5
 73
     0
 74
     0
 77
     1
 78
     8
140
3.5
147
1.5
172
     1
173
     1
174
     1
175
     1
176
     2
177
     2
271
     1
178
     3
271
     1
340
99
  0
DIMSTYLE
105
139
102
{ACAD_REACTORS
330
13A
102
}
330
A
100
AcDbSymbolTableRecord
100
AcDbDimStyleTableRecord
  2
ME10_DIM_12
 70
     0
 41
3.5
 42
0.0
 44
1.5
 73
     0
 74
     0
 77
     1
 78
     8
140
3.5
147
1.5
172
     1
173
     1
174
     1
175
     1
176
     2
177
     2
271
     2
178
     3
271
     2
340
99
  0
ENDTAB
  0
TABLE
  2
BLOCK_RECORD
  5
1
330
0
100
AcDbSymbolTable
 70
    20
  0
BLOCK_RECORD
  5
1F
330
1
100
AcDbSymbolTableRecord
100
AcDbBlockTableRecord
  2
*Model_Space
340
22
  0
BLOCK_RECORD
  5
1B
330
1
100
AcDbSymbolTableRecord
100
AcDbBlockTableRecord
  2
*Paper_Space
340
1E
  0
BLOCK_RECORD
  5
23
330
1
100
AcDbSymbolTableRecord
100
AcDbBlockTableRecord
  2
*Paper_Space0
340
26
  0
BLOCK_RECORD
  5
47
330
1
100
AcDbSymbolTableRecord
100
AcDbBlockTableRecord
  2
D-ST_2_5-TWIN-SELECT__1
340
0
102
{BLKREFS
331
4B
102
}
  0
BLOCK_RECORD
  5
4A
330
1
100
AcDbSymbolTableRecord
100
AcDbBlockTableRecord
  2
Back1
340
0
102
{BLKREFS
331
7D
102
}
  0
BLOCK_RECORD
  5
4E
330
1
100
AcDbSymbolTableRecord
100
AcDbBlockTableRecord
  2
D-ST_2_5-TWIN-SELECT__2
340
0
102
{BLKREFS
331
52
102
}
  0
BLOCK_RECORD
  5
51
330
1
100
AcDbSymbolTableRecord
100
AcDbBlockTableRecord
  2
Front1
340
0
102
{BLKREFS
331
7E
102
}
  0
BLOCK_RECORD
  5
55
330
1
100
AcDbSymbolTableRecord
100
AcDbBlockTableRecord
  2
D-ST_2_5-TWIN-SELECT__3
340
0
102
{BLKREFS
331
59
102
}
  0
BLOCK_RECORD
  5
58
330
1
100
AcDbSymbolTableRecord
100
AcDbBlockTableRecord
  2
Gen1
340
0
102
{BLKREFS
331
7F
102
}
  0
BLOCK_RECORD
  5
5C
330
1
100
AcDbSymbolTableRecord
100
AcDbBlockTableRecord
  2
D-ST_2_5-TWIN-SELECT__4
340
0
102
{BLKREFS
331
60
102
}
  0
BLOCK_RECORD
  5
5F
330
1
100
AcDbSymbolTableRecord
100
AcDbBlockTableRecord
  2
Left1
340
0
102
{BLKREFS
331
80
102
}
  0
BLOCK_RECORD
  5
63
330
1
100
AcDbSymbolTableRecord
100
AcDbBlockTableRecord
  2
D-ST_2_5-TWIN-SELECT__5
340
0
102
{BLKREFS
331
67
102
}
  0
BLOCK_RECORD
  5
66
330
1
100
AcDbSymbolTableRecord
100
AcDbBlockTableRecord
  2
Right1
340
0
102
{BLKREFS
331
81
102
}
  0
BLOCK_RECORD
  5
6A
330
1
100
AcDbSymbolTableRecord
100
AcDbBlockTableRecord
  2
D-ST_2_5-TWIN-SELECT__6
340
0
102
{BLKREFS
331
6E
102
}
  0
BLOCK_RECORD
  5
6D
330
1
100
AcDbSymbolTableRecord
100
AcDbBlockTableRecord
  2
Top1
340
0
102
{BLKREFS
331
82
102
}
  0
BLOCK_RECORD
  5
71
330
1
100
AcDbSymbolTableRecord
100
AcDbBlockTableRecord
  2
_rahmen
340
0
102
{BLKREFS
331
78
102
}
  0
BLOCK_RECORD
  5
74
330
1
100
AcDbSymbolTableRecord
100
AcDbBlockTableRecord
  2
_punkt
340
0
102
{BLKREFS
331
79
102
}
  0
BLOCK_RECORD
  5
77
330
1
100
AcDbSymbolTableRecord
100
AcDbBlockTableRecord
  2
A4I_CS
340
0
102
{BLKREFS
331
83
102
}
  0
BLOCK_RECORD
  5
7C
330
1
100
AcDbSymbolTableRecord
100
AcDbBlockTableRecord
  2
1
340
0
102
{BLKREFS
331
86
102
}
  0
BLOCK_RECORD
  5
AE
330
1
100
AcDbSymbolTableRecord
100
AcDbBlockTableRecord
  2
*D17
340
0
  0
BLOCK_RECORD
  5
B9
330
1
100
AcDbSymbolTableRecord
100
AcDbBlockTableRecord
  2
*D18
340
0
  0
BLOCK_RECORD
  5
12E
330
1
100
AcDbSymbolTableRecord
100
AcDbBlockTableRecord
  2
*D19
340
0
  0
ENDTAB
  0
ENDSEC
  0
SECTION
  2
BLOCKS
  0
BLOCK
  5
20
330
1F
100
AcDbEntity
  8
0
100
AcDbBlockBegin
  2
*Model_Space
 70
     0
 10
0.0
 20
0.0
 30
0.0
  3
*Model_Space
  1

  0
ENDBLK
  5
21
330
1F
100
AcDbEntity
  8
0
100
AcDbBlockEnd
  0
BLOCK
  5
1C
330
1B
100
AcDbEntity
 67
     1
  8
0
100
AcDbBlockBegin
  2
*Paper_Space
 70
     0
 10
0.0
 20
0.0
 30
0.0
  3
*Paper_Space
  1

  0
ENDBLK
  5
1D
330
1B
100
AcDbEntity
 67
     1
  8
0
100
AcDbBlockEnd
  0
BLOCK
  5
24
330
23
100
AcDbEntity
  8
0
100
AcDbBlockBegin
  2
*Paper_Space0
 70
     0
 10
0.0
 20
0.0
 30
0.0
  3
*Paper_Space0
  1

  0
ENDBLK
  5
25
330
23
100
AcDbEntity
  8
0
100
AcDbBlockEnd
  0
BLOCK
  5
48
330
47
100
AcDbEntity
  8
0
100
AcDbBlockBegin
  2
D-ST_2_5-TWIN-SELECT__1
 70
     0
 10
115.1039701938473
 20
465.1803335264162
 30
0.0
  3
D-ST_2_5-TWIN-SELECT__1
  1

  0
LINE
  5
87
330
47
100
AcDbEntity
  8
0
  6
Continuous
 62
     7
100
AcDbLine
 10
117.0641644231937
 20
494.2303335264097
 30
0.0
 11
151.4854704745578
 21
494.2303335264097
 31
0.0
  0
LINE
  5
88
330
47
100
AcDbEntity
  8
0
  6
Continuous
 62
     7
100
AcDbLine
 10
151.4854704745578
 20
494.2303335264097
 30
0.0
 11
160.9224699131277
 21
494.2303335264097
 31
0.0
  0
LINE
  5
89
330
47
100
AcDbEntity
  8
0
  6
Continuous
 62
     7
100
AcDbLine
 10
115.1039701938473
 20
468.1803335264114
 30
0.0
 11
115.1039701938473
 21
470.1803335264087
 31
0.0
  0
LINE
  5
8A
330
47
100
AcDbEntity
  8
0
  6
Continuous
 62
     7
100
AcDbLine
 10
115.1039701938473
 20
482.1803335264086
 30
0.0
 11
115.1039701938473
 21
486.9147890698035
 31
0.0
  0
LINE
  5
8B
330
47
100
AcDbEntity
  8
0
  6
Continuous
 62
     7
100
AcDbLine
 10
115.1039701938473
 20
486.9147890698035
 30
0.0
 11
117.0641644231937
 21
494.2303335264097
 31
0.0
  0
LINE
  5
8C
330
47
100
AcDbEntity
  8
0
  6
Continuous
 62
     7
100
AcDbLine
 10
160.9224699131277
 20
494.2303335264097
 30
0.0
 11
160.2039701938471
 21
492.5303335264011
 31
0.0
  0
LINE
  5
8D
330
47
100
AcDbEntity
  8
0
  6
Continuous
 62
     7
100
AcDbLine
 10
160.9224699131277
 20
494.2303335264097
 30
0.0
 11
173.5437759645007
 21
494.2303335264097
 31
0.0
  0
LINE
  5
8E
330
47
100
AcDbEntity
  8
0
  6
Continuous
 62
     7
100
AcDbLine
 10
173.5437759645007
 20
494.2303335264097
 30
0.0
 11
175.5039701938475
 21
486.9147890698021
 31
0.0
  0
LINE
  5
8F
330
47
100
AcDbEntity
  8
0
  6
Continuous
 62
     7
100
AcDbLine
 10
152.2039701938473
 20
492.5303335264507
 30
0.0
 11
151.4854704745578
 21
494.2303335264097
 31
0.0
  0
LINE
  5
90
330
47
100
AcDbEntity
  8
0
  6
Continuous
 62
     7
100
AcDbLine
 10
152.203970193849
 20
488.2303335264013
 30
0.0
 11
152.2039701938473
 21
492.5303335264507
 31
0.0
  0
LINE
  5
91
330
47
100
AcDbEntity
  8
0
  6
Continuous
 62
     7
100
AcDbLine
 10
160.2039701938488
 20
488.2303335264046
 30
0.0
 11
152.203970193849
 21
488.2303335264013
 31
0.0
  0
LINE
  5
92
330
47
100
AcDbEntity
  8
0
  6
Continuous
 62
     7
100
AcDbLine
 10
175.5039701938475
 20
465.1803335264162
 30
0.0
 11
120.5112611538254
 21
465.1803335264162
 31
0.0
  0
LINE
  5
93
330
47
100
AcDbEntity
  8
0
  6
Continuous
 62
     7
100
AcDbLine
 10
175.5039701938475
 20
486.9147890698021
 30
0.0
 11
175.5039701938475
 21
482.1803335264086
 31
0.0
  0
LINE
  5
94
330
47
100
AcDbEntity
  8
0
  6
Continuous
 62
     7
100
AcDbLine
 10
175.5039701938475
 20
473.1803335264086
 30
0.0
 11
175.5039701938475
 21
465.1803335264162
 31
0.0
  0
LINE
  5
95
330
47
100
AcDbEntity
  8
0
  6
Continuous
 62
     7
100
AcDbLine
 10
160.2039701938471
 20
492.5303335264011
 30
0.0
 11
160.2039701938488
 21
488.2303335264046
 31
0.0
  0
LINE
  5
96
330
47
100
AcDbEntity
  8
0
  6
Continuous
 62
     7
100
AcDbLine
 10
120.5112611538254
 20
465.1803335264162
 30
0.0
 11
115.1039701938473
 21
468.1803335264114
 31
0.0
  0
ARC
  5
97
330
47
100
AcDbEntity
  8
0
  6
Continuous
 62
     7
100
AcDbCircle
 10
101.3562431089798
 20
476.1803335264086
 30
0.0
 40
14.99999999999996
100
AcDbArc
 50
336.4218215217983
 51
23.57817847820186
  0
ARC
  5
98
330
47
100
AcDbEntity
  8
0
  6
Continuous
 62
     7
100
AcDbCircle
 10
189.8130582151017
 20
477.6803335264086
 30
0.0
 40
15.00000000000002
100
AcDbArc
 50
162.542396876278
 51
197.4576031237221
  0
ENDBLK
  5
49
330
47
100
AcDbEntity
  8
0
100
AcDbBlockEnd
  0
BLOCK
  5
4C
330
4A
100
AcDbEntity
  8
0
100
AcDbBlockBegin
  2
Back1
 70
     0
 10
145.3039702688973
 20
479.7053331062033
 30
0.0
  3
Back1
  1

  0
INSERT
  5
4B
330
4A
100
AcDbEntity
  8
0
100
AcDbBlockReference
  2
D-ST_2_5-TWIN-SELECT__1
 10
115.1039701938473
 20
465.1803335264162
 30
0.0
  0
MTEXT
  5
9A
330
4A
100
AcDbEntity
  8
1
 62
     6
100
AcDbMText
 10
145.3039696878885
 20
460.1803332166157
 30
0.0
 40
5.0
 41
0.0
 71
     2
 72
     1
  1
 
  7
CONVERTER_11
 73
     1
 44
1.32052821128451
  0
ENDBLK
  5
4D
330
4A
100
AcDbEntity
  8
0
100
AcDbBlockEnd
  0
BLOCK
  5
4F
330
4E
100
AcDbEntity
  8
0
100
AcDbBlockBegin
  2
D-ST_2_5-TWIN-SELECT__2
 70
     0
 10
-6.20000050595521
 20
465.1803335264162
 30
0.0
  3
D-ST_2_5-TWIN-SELECT__2
  1

  0
LINE
  5
9B
330
4E
100
AcDbEntity
  8
0
  6
Continuous
 62
     7
100
AcDbLine
 10
17.0999994940433
 20
488.2303335264011
 30
0.0
 11
9.09999949404356
 21
488.2303335264044
 31
0.0
  0
LINE
  5
9C
330
4E
100
AcDbEntity
  8
0
  6
Continuous
 62
     7
100
AcDbLine
 10
9.09999949404356
 20
488.2303335264044
 30
0.0
 11
9.09999949404528
 21
492.5303335264011
 31
0.0
  0
LINE
  5
9D
330
4E
100
AcDbEntity
  8
0
  6
Continuous
 62
     7
100
AcDbLine
 10
17.09999949404506
 20
492.5303335264447
 30
0.0
 11
17.0999994940433
 21
488.2303335264011
 31
0.0
  0
LINE
  5
9E
330
4E
100
AcDbEntity
  8
0
  6
Continuous
 62
     7
100
AcDbLine
 10
8.38149977476465
 20
494.2303335264097
 30
0.0
 11
17.81849921333459
 21
494.2303335264097
 31
0.0
  0
LINE
  5
9F
330
4E
100
AcDbEntity
  8
0
  6
Continuous
 62
     7
100
AcDbLine
 10
8.38149977476465
 20
494.2303335264097
 30
0.0
 11
-4.23980627660837
 21
494.2303335264097
 31
0.0
  0
LINE
  5
A0
330
4E
100
AcDbEntity
  8
0
  6
Continuous
 62
     7
100
AcDbLine
 10
17.81849921333459
 20
494.2303335264097
 30
0.0
 11
17.09999949404506
 21
492.5303335264447
 31
0.0
  0
LINE
  5
A1
330
4E
100
AcDbEntity
  8
0
  6
Continuous
 62
     7
100
AcDbLine
 10
9.09999949404528
 20
492.5303335264011
 30
0.0
 11
8.38149977476465
 21
494.2303335264097
 31
0.0
  0
LINE
  5
A2
330
4E
100
AcDbEntity
  8
0
  6
Continuous
 62
     7
100
AcDbLine
 10
52.23980526469863
 20
494.2303335264097
 30
0.0
 11
54.19999949404502
 21
486.9147890698035
 31
0.0
  0
LINE
  5
A3
330
4E
100
AcDbEntity
  8
0
  6
Continuous
 62
     7
100
AcDbLine
 10
54.19999949404502
 20
486.9147890698035
 30
0.0
 11
54.19999949404502
 21
482.1803335264086
 31
0.0
  0
LINE
  5
A4
330
4E
100
AcDbEntity
  8
0
  6
Continuous
 62
     7
100
AcDbLine
 10
54.19999949404502
 20
470.1803335264086
 30
0.0
 11
54.19999949404501
 21
468.1803335264113
 31
0.0
  0
LINE
  5
A5
330
4E
100
AcDbEntity
  8
0
  6
Continuous
 62
     7
100
AcDbLine
 10
-6.20000050595521
 20
486.9147890698021
 30
0.0
 11
-4.23980627660837
 21
494.2303335264097
 31
0.0
  0
LINE
  5
A6
330
4E
100
AcDbEntity
  8
0
  6
Continuous
 62
     7
100
AcDbLine
 10
48.7927085340669
 20
465.1803335264162
 30
0.0
 11
-6.20000050595521
 21
465.1803335264162
 31
0.0
  0
LINE
  5
A7
330
4E
100
AcDbEntity
  8
0
  6
Continuous
 62
     7
100
AcDbLine
 10
-6.20000050595521
 20
465.1803335264162
 30
0.0
 11
-6.20000050595521
 21
473.1803335264086
 31
0.0
  0
LINE
  5
A8
330
4E
100
AcDbEntity
  8
0
  6
Continuous
 62
     7
100
AcDbLine
 10
-6.20000050595521
 20
482.1803335264086
 30
0.0
 11
-6.20000050595521
 21
486.9147890698021
 31
0.0
  0
LINE
  5
A9
330
4E
100
AcDbEntity
  8
0
  6
Continuous
 62
     7
100
AcDbLine
 10
52.23980526469863
 20
494.2303335264097
 30
0.0
 11
17.81849921333459
 21
494.2303335264097
 31
0.0
  0
LINE
  5
AA
330
4E
100
AcDbEntity
  8
0
  6
Continuous
 62
     7
100
AcDbLine
 10
54.19999949404501
 20
468.1803335264113
 30
0.0
 11
48.7927085340669
 21
465.1803335264162
 31
0.0
  0
ARC
  5
AB
330
4E
100
AcDbEntity
  8
0
  6
Continuous
 62
     7
100
AcDbCircle
 10
67.94772657891254
 20
476.1803335264086
 30
0.0
 40
15.0
100
AcDbArc
 50
156.4218215217982
 51
203.5781784782018
  0
ARC
  5
AC
330
4E
100
AcDbEntity
  8
0
  6
Continuous
 62
     7
100
AcDbCircle
 10
-20.50908852720941
 20
477.6803335264086
 30
0.0
 40
15.00000000000002
100
AcDbArc
 50
342.5423968762779
 51
17.45760312372208
  0
ENDBLK
  5
50
330
4E
100
AcDbEntity
  8
0
100
AcDbBlockEnd
  0
BLOCK
  5
53
330
51
100
AcDbEntity
  8
0
100
AcDbBlockBegin
  2
Front1
 70
     0
 10
23.999999418995
 20
479.7053331062033
 30
0.0
  3
Front1
  1

  0
INSERT
  5
52
330
51
100
AcDbEntity
  8
0
100
AcDbBlockReference
  2
D-ST_2_5-TWIN-SELECT__2
 10
-6.20000050595521
 20
465.1803335264162
 30
0.0
  0
MTEXT
  5
AD
330
51
100
AcDbEntity
  8
1
 62
     6
100
AcDbMText
 10
24.00000000000466
 20
460.1803332166157
 30
0.0
 40
5.0
 41
0.0
 71
     2
 72
     1
  1
 
  7
CONVERTER_11
 73
     1
 44
1.32052821128451
  0
DIMENSION
  5
B8
330
51
100
AcDbEntity
  8
1
100
AcDbDimension
  2
*D17
 10
-6.2000005059552
 20
449.8774929189181
 30
0.0
 11
25.0094118483981
 21
453.3024929189181
 31
0.0
 70
    32
  1
<>
 71
     5
 42
-1.0
 53
0.00013888888889
  3
ME10_DIM_10
100
AcDbAlignedDimension
 13
54.19999949404501
 23
468.1803335264113
 33
0.0
 14
-6.20000050595521
 24
465.1803335264162
 34
0.0
100
AcDbRotatedDimension
  0
DIMENSION
  5
C3
330
51
100
AcDbEntity
  8
1
100
AcDbDimension
  2
*D18
 10
-22.3798959823433
 20
494.2303335264098
 30
0.0
 11
-25.8048959823433
 21
479.4784388659791
 31
0.0
 70
    32
  1
<>
 71
     5
 42
-1.0
 53
90.0
  3
ME10_DIM_11
100
AcDbAlignedDimension
 13
-6.20000050595521
 23
465.1803335264162
 33
0.0
 14
-4.23980627660837
 24
494.2303335264097
 34
0.0
 50
90.0
100
AcDbRotatedDimension
  0
ENDBLK
  5
54
330
51
100
AcDbEntity
  8
0
100
AcDbBlockEnd
  0
BLOCK
  5
56
330
55
100
AcDbEntity
  8
0
100
AcDbBlockBegin
  2
D-ST_2_5-TWIN-SELECT__3
 70
     0
 10
118.6000026130545
 20
379.4518238933669
 30
0.0
  3
D-ST_2_5-TWIN-SELECT__3
  1

  0
LINE
  5
C4
330
55
100
AcDbEntity
  8
0
  6
Continuous
 62
     7
100
AcDbLine
 10
170.9079370016348
 20
382.430128172288
 30
0.0
 11
170.9079370016348
 21
380.6980773647214
 31
0.0
  0
LINE
  5
C5
330
55
100
AcDbEntity
  8
0
  6
Continuous
 62
     7
100
AcDbLine
 10
121.3975806120206
 20
418.8206185201309
 30
0.0
 11
120.2975806120206
 21
417.867990575968
 31
0.0
  0
LINE
  5
C6
330
55
100
AcDbEntity
  8
0
  6
Continuous
 62
     7
100
AcDbLine
 10
118.6000026130545
 20
412.0225917913681
 30
0.0
 11
120.2975806120206
 21
417.867990575968
 31
0.0
  0
LINE
  5
C7
330
55
100
AcDbEntity
  8
0
  6
Continuous
 62
     7
100
AcDbLine
 10
132.3279522814478
 20
415.6652920072876
 30
0.0
 11
132.4011568707999
 21
415.4709545818466
 31
0.0
  0
LINE
  5
C8
330
55
100
AcDbEntity
  8
0
  6
Continuous
 62
     7
100
AcDbLine
 10
131.9001912909554
 20
409.3801879807831
 30
0.0
 11
131.9001912909568
 21
413.1040972170529
 31
0.0
  0
LINE
  5
C9
330
55
100
AcDbEntity
  8
0
  6
Continuous
 62
     7
100
AcDbLine
 10
132.1779522814479
 20
415.53538819672
 30
0.0
 11
132.3279522814478
 21
415.6652920072876
 31
0.0
  0
LINE
  5
CA
330
55
100
AcDbEntity
  8
0
  6
Continuous
 62
     7
100
AcDbLine
 10
131.2279522814478
 20
414.7126640631248
 30
0.0
 11
131.2779522814479
 21
414.755965333314
 31
0.0
  0
LINE
  5
CB
330
55
100
AcDbEntity
  8
0
  6
Continuous
 62
     7
100
AcDbLine
 10
131.8501912909554
 20
409.3368867105938
 30
0.0
 11
131.8501912909569
 21
413.0607959468636
 31
0.0
  0
LINE
  5
CC
330
55
100
AcDbEntity
  8
0
  6
Continuous
 62
     7
100
AcDbLine
 10
131.2279522814478
 20
414.7126640631248
 30
0.0
 11
120.2975806120206
 21
417.867990575968
 31
0.0
  0
LINE
  5
CD
330
55
100
AcDbEntity
  8
0
  6
Continuous
 62
     7
100
AcDbLine
 10
131.8501912909569
 20
413.0607959468636
 30
0.0
 11
131.2279522814478
 21
414.7126640631248
 31
0.0
  0
LINE
  5
CE
330
55
100
AcDbEntity
  8
0
  6
Continuous
 62
     7
100
AcDbLine
 10
132.3279522814478
 20
415.6652920072876
 30
0.0
 11
121.3975806120206
 21
418.8206185201309
 31
0.0
  0
LINE
  5
CF
330
55
100
AcDbEntity
  8
0
  6
Continuous
 62
     7
100
AcDbLine
 10
172.0079370016348
 20
393.7750609618641
 30
0.0
 11
172.0079370016348
 21
397.8752197355321
 31
0.0
  0
LINE
  5
D0
330
55
100
AcDbEntity
  8
0
  6
Continuous
 62
     7
100
AcDbLine
 10
172.0079370016348
 20
393.7750609618641
 30
0.0
 11
170.9079370016348
 21
392.8224330177012
 31
0.0
  0
LINE
  5
D1
330
55
100
AcDbEntity
  8
0
  6
Continuous
 62
     7
100
AcDbLine
 10
170.9079370016348
 20
396.9225917913693
 30
0.0
 11
170.9079370016348
 21
392.8224330177012
 31
0.0
  0
LINE
  5
D2
330
55
100
AcDbEntity
  8
0
  6
Continuous
 62
     7
100
AcDbLine
 10
172.0079370016348
 20
397.8752197355321
 30
0.0
 11
170.9079370016348
 21
396.9225917913693
 31
0.0
  0
LINE
  5
D3
330
55
100
AcDbEntity
  8
0
  6
Continuous
 62
     7
100
AcDbLine
 10
172.0079370016348
 20
397.8752197355321
 30
0.0
 11
170.3103590026692
 21
404.7007156348041
 31
0.0
  0
LINE
  5
D4
330
55
100
AcDbEntity
  8
0
  6
Continuous
 62
     7
100
AcDbLine
 10
170.9079370016348
 20
380.6980773647214
 30
0.0
 11
166.2250856646398
 21
379.4518238933669
 31
0.0
  0
LINE
  5
D5
330
55
100
AcDbEntity
  8
0
  6
Continuous
 62
     7
100
AcDbLine
 10
172.0079370016348
 20
381.6507053088843
 30
0.0
 11
170.9079370016348
 21
380.6980773647214
 31
0.0
  0
LINE
  5
D6
330
55
100
AcDbEntity
  8
0
  6
Continuous
 62
     7
100
AcDbLine
 10
172.0079370016348
 20
381.6507053088843
 30
0.0
 11
172.0079370016348
 21
383.3827561164509
 31
0.0
  0
LINE
  5
D7
330
55
100
AcDbEntity
  8
0
  6
Continuous
 62
     7
100
AcDbLine
 10
172.0079370016348
 20
383.3827561164509
 30
0.0
 11
170.9079370016348
 21
382.430128172288
 31
0.0
  0
LINE
  5
D8
330
55
100
AcDbEntity
  8
0
  6
Continuous
 62
     7
100
AcDbLine
 10
139.4506335307489
 20
412.3967154736715
 30
0.0
 11
139.4006335307489
 21
412.3534142034823
 31
0.0
  0
LINE
  5
D9
330
55
100
AcDbEntity
  8
0
  6
Continuous
 62
     7
100
AcDbLine
 10
131.8501912909569
 20
413.0607959468636
 30
0.0
 11
131.9001912909568
 21
413.1040972170529
 31
0.0
  0
LINE
  5
DA
330
55
100
AcDbEntity
  8
0
  6
Continuous
 62
     7
100
AcDbLine
 10
131.2779522814479
 20
414.755965333314
 30
0.0
 11
139.4506335307489
 21
412.3967154736715
 31
0.0
  0
LINE
  5
DB
330
55
100
AcDbEntity
  8
0
  6
Continuous
 62
     7
100
AcDbLine
 10
131.2779522814479
 20
414.755965333314
 30
0.0
 11
131.9001912909568
 21
413.1040972170529
 31
0.0
  0
LINE
  5
DC
330
55
100
AcDbEntity
  8
0
  6
Continuous
 62
     7
100
AcDbLine
 10
140.3506335307488
 20
413.1761383370775
 30
0.0
 11
132.1779522814479
 21
415.53538819672
 31
0.0
  0
LINE
  5
DD
330
55
100
AcDbEntity
  8
0
  6
Continuous
 62
     7
100
AcDbLine
 10
169.2103590026692
 20
403.7480876906412
 30
0.0
 11
170.9079370016348
 21
396.9225917913693
 31
0.0
  0
LINE
  5
DE
330
55
100
AcDbEntity
  8
0
  6
Continuous
 62
     7
100
AcDbLine
 10
170.3103590026692
 20
404.7007156348041
 30
0.0
 11
169.2103590026692
 21
403.7480876906412
 31
0.0
  0
LINE
  5
DF
330
55
100
AcDbEntity
  8
0
  6
Continuous
 62
     7
100
AcDbLine
 10
118.6000026130545
 20
393.2000011533725
 30
0.0
 11
118.6000026130545
 21
400.1282043836414
 31
0.0
  0
LINE
  5
E0
330
55
100
AcDbEntity
  8
0
  6
Continuous
 62
     7
100
AcDbLine
 10
140.5006335307488
 20
413.3060421476452
 30
0.0
 11
140.3506335307488
 21
413.1761383370775
 31
0.0
  0
LINE
  5
E1
330
55
100
AcDbEntity
  8
0
  6
Continuous
 62
     7
100
AcDbLine
 10
169.2103590026692
 20
403.7480876906412
 30
0.0
 11
139.4006335307489
 21
412.3534142034823
 31
0.0
  0
LINE
  5
E2
330
55
100
AcDbEntity
  8
0
  6
Continuous
 62
     7
100
AcDbLine
 10
170.3103590026692
 20
404.7007156348041
 30
0.0
 11
140.5006335307488
 21
413.3060421476452
 31
0.0
  0
LINE
  5
E3
330
55
100
AcDbEntity
  8
0
  6
Continuous
 62
     7
100
AcDbLine
 10
138.7783945212322
 20
411.0607959469014
 30
0.0
 11
138.7783945212307
 21
407.3368867105911
 31
0.0
  0
LINE
  5
E4
330
55
100
AcDbEntity
  8
0
  6
Continuous
 62
     7
100
AcDbLine
 10
131.8501912909554
 20
409.3368867105938
 30
0.0
 11
131.9001912909554
 21
409.3801879807831
 31
0.0
  0
LINE
  5
E5
330
55
100
AcDbEntity
  8
0
  6
Continuous
 62
     7
100
AcDbLine
 10
139.4006335307489
 20
412.3534142034823
 30
0.0
 11
138.7783945212322
 21
411.0607959469014
 31
0.0
  0
LINE
  5
E6
330
55
100
AcDbEntity
  8
0
  6
Continuous
 62
     7
100
AcDbLine
 10
118.6000026130545
 20
407.9224330177013
 30
0.0
 11
118.6000026130545
 21
412.0225917913681
 31
0.0
  0
LINE
  5
E7
330
55
100
AcDbEntity
  8
0
  6
Continuous
 62
     7
100
AcDbLine
 10
138.7783945212307
 20
407.3368867105911
 30
0.0
 11
131.8501912909554
 21
409.3368867105938
 31
0.0
  0
LINE
  5
E8
330
55
100
AcDbEntity
  8
0
  6
Continuous
 62
     7
100
AcDbLine
 10
138.7783945212307
 20
407.3946217375101
 30
0.0
 11
131.9001912909554
 21
409.3801879807831
 31
0.0
  0
LINE
  5
E9
330
55
100
AcDbEntity
  8
0
  6
Continuous
 62
     7
100
AcDbLine
 10
166.2250856646398
 20
379.4518238933669
 30
0.0
 11
118.6000026130545
 21
393.2000011533725
 31
0.0
  0
SPLINE
  5
EA
330
55
100
AcDbEntity
  8
0
  6
Continuous
 62
     7
100
AcDbSpline
210
0.0
220
0.0
230
1.0
 70
     8
 71
     3
 72
    13
 73
     9
 74
     7
 42
0.000000001
 43
0.0000000001
 44
0.00000001
 40
0.0
 40
0.0
 40
0.0
 40
0.0
 40
1.618800875634698
 40
3.296662960634581
 40
5.042045806819212
 40
6.857713221235802
 40
8.741157514547503
 40
10.68531582206927
 40
10.68531582206927
 40
10.68531582206927
 40
10.68531582206927
 10
170.9079370016348
 20
392.8224330177012
 30
0.0
 10
170.6910303146131
 20
392.3270123155446
 30
0.0
 10
170.249303212968
 20
391.3180957081551
 30
0.0
 10
169.9036813071514
 20
389.6623801859226
 30
0.0
 10
169.7812290618515
 20
387.9159508947953
 30
0.0
 10
169.9121419890886
 20
386.1007858938538
 30
0.0
 10
170.2691332215755
 20
384.2472375382645
 30
0.0
 10
170.6927625128888
 20
383.042202774306
 30
0.0
 10
170.9079370016348
 20
382.430128172288
 30
0.0
 11
170.9079370016348
 21
392.8224330177012
 31
0.0
 11
170.3092385510221
 21
391.3184129228367
 31
0.0
 11
169.9454603603135
 21
389.6804609663643
 31
0.0
 11
169.8234369162707
 21
387.9393488031051
 31
0.0
 11
169.9454603603135
 21
386.1277863715806
 31
0.0
 11
170.3092385510221
 21
384.2798069787771
 31
0.0
 11
170.9079370016348
 21
382.430128172288
 31
0.0
  0
SPLINE
  5
EB
330
55
100
AcDbEntity
  8
0
  6
Continuous
 62
     7
100
AcDbSpline
210
0.0
220
0.0
230
1.0
 70
     8
 71
     3
 72
    13
 73
     9
 74
     7
 42
0.000000001
 43
0.0000000001
 44
0.00000001
 40
0.0
 40
0.0
 40
0.0
 40
0.0
 40
1.618800875634751
 40
3.296662960634591
 40
5.042045806819109
 40
6.857713221235755
 40
8.741157514547517
 40
10.68531582206929
 40
10.68531582206929
 40
10.68531582206929
 40
10.68531582206929
 10
172.0079370016348
 20
393.7750609618641
 30
0.0
 10
171.7910303146131
 20
393.2796402597075
 30
0.0
 10
171.349303212968
 20
392.2707236523181
 30
0.0
 10
171.0036813071514
 20
390.6150081300856
 30
0.0
 10
170.8812290618514
 20
388.8685788389583
 30
0.0
 10
171.0121419890885
 20
387.0534138380166
 30
0.0
 10
171.3691332215755
 20
385.1998654824274
 30
0.0
 10
171.7927625128889
 20
383.994830718469
 30
0.0
 10
172.0079370016348
 20
383.3827561164509
 30
0.0
 11
172.0079370016348
 21
393.7750609618641
 31
0.0
 11
171.4092385510221
 21
392.2710408669996
 31
0.0
 11
171.0454603603134
 21
390.6330889105271
 31
0.0
 11
170.9234369162706
 21
388.8919767472681
 31
0.0
 11
171.0454603603134
 21
387.0804143157435
 31
0.0
 11
171.4092385510221
 21
385.23243492294
 31
0.0
 11
172.0079370016348
 21
383.3827561164509
 31
0.0
  0
SPLINE
  5
EC
330
55
100
AcDbEntity
  8
0
  6
Continuous
 62
     7
100
AcDbSpline
210
0.0
220
0.0
230
1.0
 70
     8
 71
     3
 72
    11
 73
     7
 74
     5
 42
0.000000001
 43
0.0000000001
 44
0.00000001
 40
0.0
 40
0.0
 40
0.0
 40
0.0
 40
1.851422095563128
 40
3.785240840661519
 40
5.805674702652593
 40
7.908935340360665
 40
7.908935340360665
 40
7.908935340360665
 40
7.908935340360665
 10
118.6000026130545
 20
400.1282043836414
 30
0.0
 10
118.7708443051886
 20
400.7229204780213
 30
0.0
 10
119.1201309021451
 20
401.938820223914
 30
0.0
 10
119.2414641672541
 20
403.882463265896
 30
0.0
 10
119.1035031618887
 20
405.9048114792823
 30
0.0
 10
118.7700685429594
 20
407.240946823621
 30
0.0
 10
118.6000026130545
 20
407.9224330177013
 30
0.0
 11
118.6000026130545
 21
400.1282043836414
 31
0.0
 11
119.0478916504365
 21
401.9246339509397
 31
0.0
 11
119.1983499384274
 21
403.8525907059849
 31
0.0
 11
119.0478916504365
 21
405.8674145941034
 31
0.0
 11
118.6000026130545
 21
407.9224330177013
 31
0.0
  0
ENDBLK
  5
57
330
55
100
AcDbEntity
  8
0
100
AcDbBlockEnd
  0
BLOCK
  5
5A
330
58
100
AcDbEntity
  8
0
100
AcDbBlockBegin
  2
Gen1
 70
     0
 10
145.3039697304286
 20
398.7053337599464
 30
0.0
  3
Gen1
  1

  0
INSERT
  5
59
330
58
100
AcDbEntity
  8
0
100
AcDbBlockReference
  2
D-ST_2_5-TWIN-SELECT__3
 10
118.6000026130545
 20
379.4518238933669
 30
0.0
  0
MTEXT
  5
ED
330
58
100
AcDbEntity
  8
1
 62
     6
100
AcDbMText
 10
145.3039697335989
 20
373.100000114192
 30
0.0
 40
5.0
 41
0.0
 71
     2
 72
     1
  1
 
  7
CONVERTER_11
 73
     1
 44
1.32052821128451
  0
ENDBLK
  5
5B
330
58
100
AcDbEntity
  8
0
100
AcDbBlockEnd
  0
BLOCK
  5
5D
330
5C
100
AcDbEntity
  8
0
100
AcDbBlockBegin
  2
D-ST_2_5-TWIN-SELECT__4
 70
     0
 10
84.09999932010666
 20
465.1803335264144
 30
0.0
  3
D-ST_2_5-TWIN-SELECT__4
  1

  0
LINE
  5
EE
330
5C
100
AcDbEntity
  8
0
  6
Continuous
 62
     7
100
AcDbLine
 10
84.09999932010666
 20
494.2303335264079
 30
0.0
 11
84.09999932010666
 21
486.9147890698002
 31
0.0
  0
LINE
  5
EF
330
5C
100
AcDbEntity
  8
0
  6
Continuous
 62
     7
100
AcDbLine
 10
84.09999932010666
 20
473.1803335264067
 30
0.0
 11
86.29999932010665
 21
473.1803335264067
 31
0.0
  0
LINE
  5
F0
330
5C
100
AcDbEntity
  8
0
  6
Continuous
 62
     7
100
AcDbLine
 10
84.09999932010666
 20
473.1803335264067
 30
0.0
 11
84.09999932010666
 21
482.1803335264067
 31
0.0
  0
LINE
  5
F1
330
5C
100
AcDbEntity
  8
0
  6
Continuous
 62
     7
100
AcDbLine
 10
84.09999932010666
 20
473.1803335264067
 30
0.0
 11
84.09999932010666
 21
465.1803335264144
 31
0.0
  0
LINE
  5
F2
330
5C
100
AcDbEntity
  8
0
  6
Continuous
 62
     7
100
AcDbLine
 10
86.29999932010665
 20
465.1803335264144
 30
0.0
 11
86.29999932010665
 21
473.1803335264067
 31
0.0
  0
LINE
  5
F3
330
5C
100
AcDbEntity
  8
0
  6
Continuous
 62
     7
100
AcDbLine
 10
86.29999932010665
 20
465.1803335264144
 30
0.0
 11
84.09999932010666
 21
465.1803335264144
 31
0.0
  0
LINE
  5
F4
330
5C
100
AcDbEntity
  8
0
  6
Continuous
 62
     7
100
AcDbLine
 10
86.29999932010665
 20
486.9147890698002
 30
0.0
 11
86.29999932010665
 21
494.2303335264079
 31
0.0
  0
LINE
  5
F5
330
5C
100
AcDbEntity
  8
0
  6
Continuous
 62
     7
100
AcDbLine
 10
84.09999932010666
 20
494.2303335264079
 30
0.0
 11
86.29999932010665
 21
494.2303335264079
 31
0.0
  0
LINE
  5
F6
330
5C
100
AcDbEntity
  8
0
  6
Continuous
 62
     7
100
AcDbLine
 10
86.29999932010665
 20
482.1803335264067
 30
0.0
 11
86.29999932010665
 21
486.9147890698002
 31
0.0
  0
LINE
  5
F7
330
5C
100
AcDbEntity
  8
0
  6
Continuous
 62
     7
100
AcDbLine
 10
84.09999932010666
 20
482.1803335264067
 30
0.0
 11
86.29999932010665
 21
482.1803335264067
 31
0.0
  0
LINE
  5
F8
330
5C
100
AcDbEntity
  8
0
  6
Continuous
 62
     7
100
AcDbLine
 10
84.09999932010666
 20
486.9147890698002
 30
0.0
 11
84.09999932010666
 21
482.1803335264067
 31
0.0
  0
LINE
  5
F9
330
5C
100
AcDbEntity
  8
0
  6
Continuous
 62
     7
100
AcDbLine
 10
84.09999932010666
 20
486.9147890698002
 30
0.0
 11
86.29999932010665
 21
486.9147890698002
 31
0.0
  0
LINE
  5
FA
330
5C
100
AcDbEntity
  8
0
  6
Continuous
 62
     7
100
AcDbLine
 10
86.29999932010665
 20
473.1803335264067
 30
0.0
 11
86.29999932010665
 21
482.1803335264067
 31
0.0
  0
ENDBLK
  5
5E
330
5C
100
AcDbEntity
  8
0
100
AcDbBlockEnd
  0
BLOCK
  5
61
330
5F
100
AcDbEntity
  8
0
100
AcDbBlockBegin
  2
Left1
 70
     0
 10
85.19999934394855
 20
479.7053331062015
 30
0.0
  3
Left1
  1

  0
INSERT
  5
60
330
5F
100
AcDbEntity
  8
0
100
AcDbBlockReference
  2
D-ST_2_5-TWIN-SELECT__4
 10
84.09999932010666
 20
465.1803335264144
 30
0.0
  0
MTEXT
  5
FB
330
5F
100
AcDbEntity
  8
1
 62
     6
100
AcDbMText
 10
85.20000034394911
 20
460.1803332166157
 30
0.0
 40
5.0
 41
0.0
 71
     2
 72
     1
  1
 
  7
CONVERTER_11
 73
     1
 44
1.32052821128451
  0
ENDBLK
  5
62
330
5F
100
AcDbEntity
  8
0
100
AcDbBlockEnd
  0
BLOCK
  5
64
330
63
100
AcDbEntity
  8
0
100
AcDbBlockBegin
  2
D-ST_2_5-TWIN-SELECT__5
 70
     0
 10
-57.30000015808796
 20
465.1803335264162
 30
0.0
  3
D-ST_2_5-TWIN-SELECT__5
  1

  0
LINE
  5
FC
330
63
100
AcDbEntity
  8
0
  6
Continuous
 62
     7
100
AcDbLine
 10
-57.30000015808796
 20
470.1803335264086
 30
0.0
 11
-57.30000015808796
 21
468.1803335264113
 31
0.0
  0
LINE
  5
FD
330
63
100
AcDbEntity
  8
0
  6
Continuous
 62
     7
100
AcDbLine
 10
-57.30000015808796
 20
468.1803335264113
 30
0.0
 11
-57.30000015808796
 21
465.1803335264162
 31
0.0
  0
LINE
  5
FE
330
63
100
AcDbEntity
  8
0
  6
Continuous
 62
     7
100
AcDbLine
 10
-55.10000015808797
 20
468.1803335264113
 30
0.0
 11
-55.10000015808797
 21
470.1803335264086
 31
0.0
  0
LINE
  5
FF
330
63
100
AcDbEntity
  8
0
  6
Continuous
 62
     7
100
AcDbLine
 10
-55.10000015808797
 20
486.9147890698035
 30
0.0
 11
-55.10000015808797
 21
494.2303335264097
 31
0.0
  0
LINE
  5
100
330
63
100
AcDbEntity
  8
0
  6
Continuous
 62
     7
100
AcDbLine
 10
-55.10000015808797
 20
482.1803335264086
 30
0.0
 11
-55.10000015808797
 21
486.9147890698035
 31
0.0
  0
LINE
  5
101
330
63
100
AcDbEntity
  8
0
  6
Continuous
 62
     7
100
AcDbLine
 10
-55.10000015808797
 20
482.1803335264086
 30
0.0
 11
-55.10000015808797
 21
470.1803335264086
 31
0.0
  0
LINE
  5
102
330
63
100
AcDbEntity
  8
0
  6
Continuous
 62
     7
100
AcDbLine
 10
-55.10000015808797
 20
465.1803335264162
 30
0.0
 11
-57.30000015808796
 21
465.1803335264162
 31
0.0
  0
LINE
  5
103
330
63
100
AcDbEntity
  8
0
  6
Continuous
 62
     7
100
AcDbLine
 10
-55.10000015808797
 20
468.1803335264113
 30
0.0
 11
-57.30000015808796
 21
468.1803335264113
 31
0.0
  0
LINE
  5
104
330
63
100
AcDbEntity
  8
0
  6
Continuous
 62
     7
100
AcDbLine
 10
-55.10000015808797
 20
470.1803335264086
 30
0.0
 11
-57.30000015808796
 21
470.1803335264086
 31
0.0
  0
LINE
  5
105
330
63
100
AcDbEntity
  8
0
  6
Continuous
 62
     7
100
AcDbLine
 10
-55.10000015808797
 20
465.1803335264162
 30
0.0
 11
-55.10000015808797
 21
468.1803335264113
 31
0.0
  0
LINE
  5
106
330
63
100
AcDbEntity
  8
0
  6
Continuous
 62
     7
100
AcDbLine
 10
-55.10000015808797
 20
494.2303335264097
 30
0.0
 11
-57.30000015808796
 21
494.2303335264097
 31
0.0
  0
LINE
  5
107
330
63
100
AcDbEntity
  8
0
  6
Continuous
 62
     7
100
AcDbLine
 10
-55.10000015808797
 20
482.1803335264086
 30
0.0
 11
-57.30000015808796
 21
482.1803335264086
 31
0.0
  0
LINE
  5
108
330
63
100
AcDbEntity
  8
0
  6
Continuous
 62
     7
100
AcDbLine
 10
-55.10000015808797
 20
486.9147890698035
 30
0.0
 11
-57.30000015808796
 21
486.9147890698035
 31
0.0
  0
LINE
  5
109
330
63
100
AcDbEntity
  8
0
  6
Continuous
 62
     7
100
AcDbLine
 10
-57.30000015808796
 20
494.2303335264097
 30
0.0
 11
-57.30000015808796
 21
486.9147890698035
 31
0.0
  0
LINE
  5
10A
330
63
100
AcDbEntity
  8
0
  6
Continuous
 62
     7
100
AcDbLine
 10
-57.30000015808796
 20
486.9147890698035
 30
0.0
 11
-57.30000015808796
 21
482.1803335264086
 31
0.0
  0
LINE
  5
10B
330
63
100
AcDbEntity
  8
0
  6
Continuous
 62
     7
100
AcDbLine
 10
-57.30000015808796
 20
482.1803335264086
 30
0.0
 11
-57.30000015808796
 21
470.1803335264086
 31
0.0
  0
ENDBLK
  5
65
330
63
100
AcDbEntity
  8
0
100
AcDbBlockEnd
  0
BLOCK
  5
68
330
66
100
AcDbEntity
  8
0
100
AcDbBlockBegin
  2
Right1
 70
     0
 10
-56.2000001819298
 20
479.7053331062033
 30
0.0
  3
Right1
  1

  0
INSERT
  5
67
330
66
100
AcDbEntity
  8
0
100
AcDbBlockReference
  2
D-ST_2_5-TWIN-SELECT__5
 10
-57.30000015808796
 20
465.1803335264162
 30
0.0
  0
MTEXT
  5
10C
330
66
100
AcDbEntity
  8
1
 62
     6
100
AcDbMText
 10
-56.20000118192991
 20
460.1803332166157
 30
0.0
 40
5.0
 41
0.0
 71
     2
 72
     1
  1
 
  7
CONVERTER_11
 73
     1
 44
1.32052821128451
  0
ENDBLK
  5
69
330
66
100
AcDbEntity
  8
0
100
AcDbBlockEnd
  0
BLOCK
  5
6B
330
6A
100
AcDbEntity
  8
0
100
AcDbBlockBegin
  2
D-ST_2_5-TWIN-SELECT__6
 70
     0
 10
-6.20000061230564
 20
421.6994957603488
 30
0.0
  3
D-ST_2_5-TWIN-SELECT__6
  1

  0
LINE
  5
10D
330
6A
100
AcDbEntity
  8
0
  6
Continuous
 62
     7
100
AcDbLine
 10
17.81849910698415
 20
421.7994957603488
 30
0.0
 11
17.81849910698415
 21
421.6994957603488
 31
0.0
  0
LINE
  5
10E
330
6A
100
AcDbEntity
  8
0
  6
Continuous
 62
     7
100
AcDbLine
 10
17.81849910698405
 20
423.8994957603488
 30
0.0
 11
17.81849910698405
 21
423.5994957603488
 31
0.0
  0
LINE
  5
10F
330
6A
100
AcDbEntity
  8
0
  6
Continuous
 62
     7
100
AcDbLine
 10
17.09999938769283
 20
423.8994957603488
 30
0.0
 11
17.0999993876946
 21
423.5994957603488
 31
0.0
  0
LINE
  5
110
330
6A
100
AcDbEntity
  8
0
  6
Continuous
 62
     7
100
AcDbLine
 10
-4.2398063829588
 20
423.8994957603488
 30
0.0
 11
-4.2398063829588
 21
421.6994957603488
 31
0.0
  0
LINE
  5
111
330
6A
100
AcDbEntity
  8
0
  6
Continuous
 62
     7
100
AcDbLine
 10
-6.20000061230564
 20
423.8994957603488
 30
0.0
 11
-6.20000061230564
 21
421.6994957603488
 31
0.0
  0
LINE
  5
112
330
6A
100
AcDbEntity
  8
0
  6
Continuous
 62
     7
100
AcDbLine
 10
17.81849910698405
 20
423.5994957603488
 30
0.0
 11
17.0999993876946
 21
423.5994957603488
 31
0.0
  0
LINE
  5
113
330
6A
100
AcDbEntity
  8
0
  6
Continuous
 62
     7
100
AcDbLine
 10
17.09999938769283
 20
423.8994957603488
 30
0.0
 11
17.81849910698405
 21
423.8994957603488
 31
0.0
  0
LINE
  5
114
330
6A
100
AcDbEntity
  8
0
  6
Continuous
 62
     7
100
AcDbLine
 10
9.09999938769482
 20
423.5994957603488
 30
0.0
 11
8.38149966841421
 21
423.5994957603488
 31
0.0
  0
LINE
  5
115
330
6A
100
AcDbEntity
  8
0
  6
Continuous
 62
     7
100
AcDbLine
 10
9.09999938769309
 20
423.8994957603488
 30
0.0
 11
17.09999938769283
 21
423.8994957603488
 31
0.0
  0
LINE
  5
116
330
6A
100
AcDbEntity
  8
0
  6
Continuous
 62
     7
100
AcDbLine
 10
17.0999993876946
 20
423.5994957603488
 30
0.0
 11
9.09999938769482
 21
423.5994957603488
 31
0.0
  0
LINE
  5
117
330
6A
100
AcDbEntity
  8
0
  6
Continuous
 62
     7
100
AcDbLine
 10
-6.20000061230564
 20
421.6994957603488
 30
0.0
 11
-4.2398063829588
 21
421.6994957603488
 31
0.0
  0
LINE
  5
118
330
6A
100
AcDbEntity
  8
0
  6
Continuous
 62
     7
100
AcDbLine
 10
9.09999938769485
 20
421.6994957603488
 30
0.0
 11
8.38149966841422
 21
421.6994957603488
 31
0.0
  0
LINE
  5
119
330
6A
100
AcDbEntity
  8
0
  6
Continuous
 62
     7
100
AcDbLine
 10
17.81849910698415
 20
421.6994957603488
 30
0.0
 11
17.09999938769462
 21
421.6994957603488
 31
0.0
  0
LINE
  5
11A
330
6A
100
AcDbEntity
  8
0
  6
Continuous
 62
     7
100
AcDbLine
 10
8.38149966841422
 20
421.6994957603488
 30
0.0
 11
-4.2398063829588
 21
421.6994957603488
 31
0.0
  0
LINE
  5
11B
330
6A
100
AcDbEntity
  8
0
  6
Continuous
 62
     7
100
AcDbLine
 10
52.23980515834815
 20
421.6994957603488
 30
0.0
 11
54.19999938769455
 21
421.6994957603488
 31
0.0
  0
LINE
  5
11C
330
6A
100
AcDbEntity
  8
0
  6
Continuous
 62
     7
100
AcDbLine
 10
52.23980515834815
 20
421.6994957603488
 30
0.0
 11
17.81849910698415
 21
421.6994957603488
 31
0.0
  0
LINE
  5
11D
330
6A
100
AcDbEntity
  8
0
  6
Continuous
 62
     7
100
AcDbLine
 10
17.09999938769462
 20
421.6994957603488
 30
0.0
 11
9.09999938769485
 21
421.6994957603488
 31
0.0
  0
LINE
  5
11E
330
6A
100
AcDbEntity
  8
0
  6
Continuous
 62
     7
100
AcDbLine
 10
9.09999938769485
 20
421.6994957603488
 30
0.0
 11
9.09999938769479
 21
421.7994957603488
 31
0.0
  0
LINE
  5
11F
330
6A
100
AcDbEntity
  8
0
  6
Continuous
 62
     7
100
AcDbLine
 10
17.09999938769462
 20
421.6994957603488
 30
0.0
 11
17.09999938769462
 21
421.7994957603488
 31
0.0
  0
LINE
  5
120
330
6A
100
AcDbEntity
  8
0
  6
Continuous
 62
     7
100
AcDbLine
 10
8.38149966841422
 20
421.7994957603488
 30
0.0
 11
9.09999938769479
 21
421.7994957603488
 31
0.0
  0
LINE
  5
121
330
6A
100
AcDbEntity
  8
0
  6
Continuous
 62
     7
100
AcDbLine
 10
17.09999938769462
 20
421.7994957603488
 30
0.0
 11
17.81849910698415
 21
421.7994957603488
 31
0.0
  0
LINE
  5
122
330
6A
100
AcDbEntity
  8
0
  6
Continuous
 62
     7
100
AcDbLine
 10
9.09999938769479
 20
421.7994957603488
 30
0.0
 11
17.09999938769462
 21
421.7994957603488
 31
0.0
  0
LINE
  5
123
330
6A
100
AcDbEntity
  8
0
  6
Continuous
 62
     7
100
AcDbLine
 10
8.38149966841422
 20
421.6994957603488
 30
0.0
 11
8.38149966841422
 21
421.7994957603488
 31
0.0
  0
LINE
  5
124
330
6A
100
AcDbEntity
  8
0
  6
Continuous
 62
     7
100
AcDbLine
 10
8.38149966841421
 20
423.5994957603488
 30
0.0
 11
8.38149966841421
 21
423.8994957603488
 31
0.0
  0
LINE
  5
125
330
6A
100
AcDbEntity
  8
0
  6
Continuous
 62
     7
100
AcDbLine
 10
9.09999938769309
 20
423.8994957603488
 30
0.0
 11
9.09999938769482
 21
423.5994957603488
 31
0.0
  0
LINE
  5
126
330
6A
100
AcDbEntity
  8
0
  6
Continuous
 62
     7
100
AcDbLine
 10
52.23980515834815
 20
423.8994957603488
 30
0.0
 11
52.23980515834815
 21
421.6994957603488
 31
0.0
  0
LINE
  5
127
330
6A
100
AcDbEntity
  8
0
  6
Continuous
 62
     7
100
AcDbLine
 10
54.19999938769455
 20
423.8994957603488
 30
0.0
 11
54.19999938769455
 21
421.6994957603488
 31
0.0
  0
LINE
  5
128
330
6A
100
AcDbEntity
  8
0
  6
Continuous
 62
     7
100
AcDbLine
 10
54.19999938769455
 20
423.8994957603488
 30
0.0
 11
52.23980515834815
 21
423.8994957603488
 31
0.0
  0
LINE
  5
129
330
6A
100
AcDbEntity
  8
0
  6
Continuous
 62
     7
100
AcDbLine
 10
8.38149966841421
 20
423.8994957603488
 30
0.0
 11
9.09999938769309
 21
423.8994957603488
 31
0.0
  0
LINE
  5
12A
330
6A
100
AcDbEntity
  8
0
  6
Continuous
 62
     7
100
AcDbLine
 10
8.38149966841421
 20
423.8994957603488
 30
0.0
 11
-4.2398063829588
 21
423.8994957603488
 31
0.0
  0
LINE
  5
12B
330
6A
100
AcDbEntity
  8
0
  6
Continuous
 62
     7
100
AcDbLine
 10
-4.2398063829588
 20
423.8994957603488
 30
0.0
 11
-6.20000061230564
 21
423.8994957603488
 31
0.0
  0
LINE
  5
12C
330
6A
100
AcDbEntity
  8
0
  6
Continuous
 62
     7
100
AcDbLine
 10
52.23980515834815
 20
423.8994957603488
 30
0.0
 11
17.81849910698405
 21
423.8994957603488
 31
0.0
  0
ENDBLK
  5
6C
330
6A
100
AcDbEntity
  8
0
100
AcDbBlockEnd
  0
BLOCK
  5
6F
330
6D
100
AcDbEntity
  8
0
100
AcDbBlockBegin
  2
Top1
 70
     0
 10
23.99999931264456
 20
422.7994957365069
 30
0.0
  3
Top1
  1

  0
INSERT
  5
6E
330
6D
100
AcDbEntity
  8
0
100
AcDbBlockReference
  2
D-ST_2_5-TWIN-SELECT__6
 10
-6.20000061230564
 20
421.6994957603488
 30
0.0
  0
MTEXT
  5
12D
330
6D
100
AcDbEntity
  8
1
 62
     6
100
AcDbMText
 10
23.99999989365405
 20
416.699494712665
 30
0.0
 40
5.0
 41
0.0
 71
     2
 72
     1
  1
 
  7
CONVERTER_11
 73
     1
 44
1.32052821128451
  0
DIMENSION
  5
13A
330
6D
100
AcDbEntity
  8
1
100
AcDbDimension
  2
*D19
 10
-18.30587463781517
 20
423.8994957603488
 30
0.0
 11
-21.73087463781517
 21
422.5497700558411
 31
0.0
 70
    32
  1
<>
 71
     5
 42
-1.0
 53
90.0
  3
ME10_DIM_12
100
AcDbAlignedDimension
 13
-6.20000061230564
 23
421.6994957603488
 33
0.0
 14
-6.20000061230564
 24
423.8994957603488
 34
0.0
 50
90.0
100
AcDbRotatedDimension
  0
ENDBLK
  5
70
330
6D
100
AcDbEntity
  8
0
100
AcDbBlockEnd
  0
BLOCK
  5
72
330
71
100
AcDbEntity
  8
0
100
AcDbBlockBegin
  2
_rahmen
 70
     0
 10
203.2000003439443
 20
318.7723336708282
 30
0.0
  3
_rahmen
  1

  0
LINE
  5
13B
330
71
100
AcDbEntity
  8
1
  6
Continuous
 62
     6
100
AcDbLine
 10
73.65519581719425
 20
349.2723336708283
 30
0.0
 11
203.200000343946
 21
349.2723336708283
 31
0.0
  0
LINE
  5
13C
330
71
100
AcDbEntity
  8
1
  6
Continuous
 62
     7
100
AcDbLine
 10
91.85519581719427
 20
328.0223336708283
 30
0.0
 11
110.0551958171942
 21
328.0223336708283
 31
0.0
  0
LINE
  5
13D
330
71
100
AcDbEntity
  8
1
  6
Continuous
 62
     6
100
AcDbLine
 10
91.85519581719427
 20
323.7723336708283
 30
0.0
 11
73.65519581719425
 21
323.7723336708282
 31
0.0
  0
LINE
  5
13E
330
71
100
AcDbEntity
  8
1
  6
Continuous
 62
     7
100
AcDbLine
 10
91.85519581719427
 20
328.0223336708283
 30
0.0
 11
91.85519581719427
 21
323.7723336708283
 31
0.0
  0
LINE
  5
13F
330
71
100
AcDbEntity
  8
1
  6
Continuous
 62
     7
100
AcDbLine
 10
110.0551958171942
 20
328.0223336708283
 30
0.0
 11
110.0551958171942
 21
323.7723336708282
 31
0.0
  0
LINE
  5
140
330
71
100
AcDbEntity
  8
1
  6
Continuous
 62
     7
100
AcDbLine
 10
73.65519581719425
 20
328.0223336708282
 30
0.0
 11
73.65519581719425
 21
323.7723336708282
 31
0.0
  0
LINE
  5
141
330
71
100
AcDbEntity
  8
1
  6
Continuous
 62
     7
100
AcDbLine
 10
73.65519581719425
 20
328.0223336708282
 30
0.0
 11
91.85519581719427
 21
328.0223336708283
 31
0.0
  0
LINE
  5
142
330
71
100
AcDbEntity
  8
1
  6
Continuous
 62
     2
100
AcDbLine
 10
82.89185070375686
 20
347.3973336708282
 30
0.0
 11
82.89185070375686
 21
342.3973336708282
 31
0.0
  0
LINE
  5
143
330
71
100
AcDbEntity
  8
1
  6
Continuous
 62
     2
100
AcDbLine
 10
82.89185070375686
 20
342.3973336708282
 30
0.0
 11
77.89185070375686
 21
343.6473336708282
 31
0.0
  0
LINE
  5
144
330
71
100
AcDbEntity
  8
1
  6
Continuous
 62
     2
100
AcDbLine
 10
77.89185070375686
 20
343.6473336708282
 30
0.0
 11
77.89185070375686
 21
346.1473336708282
 31
0.0
  0
LINE
  5
145
330
71
100
AcDbEntity
  8
1
  6
Continuous
 62
     2
100
AcDbLine
 10
77.89185070375686
 20
346.1473336708282
 30
0.0
 11
82.89185070375686
 21
347.3973336708282
 31
0.0
  0
LINE
  5
146
330
71
100
AcDbEntity
  8
1
  6
Continuous
 62
     6
100
AcDbLine
 10
-48.79999965605396
 20
323.7723336708283
 30
0.0
 11
-83.79999965605384
 21
323.7723336708283
 31
0.0
  0
LINE
  5
147
330
71
100
AcDbEntity
  8
1
  6
Continuous
 62
     6
100
AcDbLine
 10
203.200000343946
 20
340.7723336708283
 30
0.0
 11
203.2000003439456
 21
332.2723336708283
 31
0.0
  0
LINE
  5
148
330
71
100
AcDbEntity
  8
1
  6
Continuous
 62
     6
100
AcDbLine
 10
110.0551958171942
 20
323.7723336708282
 30
0.0
 11
109.7000003439443
 21
323.7723336708283
 31
0.0
  0
LINE
  5
149
330
71
100
AcDbEntity
  8
1
  6
Continuous
 62
     6
100
AcDbLine
 10
-42.59999965605596
 20
323.7723336708282
 30
0.0
 11
-48.79999965605396
 21
323.7723336708283
 31
0.0
  0
LINE
  5
14A
330
71
100
AcDbEntity
  8
1
  6
Continuous
 62
     7
100
AcDbLine
 10
110.0551958171942
 20
340.7723336708283
 30
0.0
 11
110.0551958171942
 21
328.0223336708283
 31
0.0
  0
LINE
  5
14B
330
71
100
AcDbEntity
  8
1
  6
Continuous
 62
     7
100
AcDbLine
 10
73.65519581719425
 20
340.7723336708283
 30
0.0
 11
73.65519581719425
 21
328.0223336708282
 31
0.0
  0
LINE
  5
14C
330
71
100
AcDbEntity
  8
1
  6
Continuous
 62
     6
100
AcDbLine
 10
59.70000034394428
 20
323.7723336708283
 30
0.0
 11
9.70000034394405
 21
323.7723336708283
 31
0.0
  0
LINE
  5
14D
330
71
100
AcDbEntity
  8
1
  6
Continuous
 62
     6
100
AcDbLine
 10
-42.59999965605596
 20
323.7723336708282
 30
0.0
 11
-40.29999965605572
 21
323.7723336708283
 31
0.0
  0
LINE
  5
14E
330
71
100
AcDbEntity
  8
1
  6
Continuous
 62
     6
100
AcDbLine
 10
110.0551958171942
 20
323.7723336708282
 30
0.0
 11
159.7000003439443
 21
323.7723336708283
 31
0.0
  0
LINE
  5
14F
330
71
100
AcDbEntity
  8
1
  6
Continuous
 62
     6
100
AcDbLine
 10
203.2000003439443
 20
323.7723336708283
 30
0.0
 11
203.2000003439456
 21
332.2723336708283
 31
0.0
  0
LINE
  5
150
330
71
100
AcDbEntity
  8
1
  6
Continuous
 62
     2
100
AcDbLine
 10
-88.79999965605481
 20
323.7723336708283
 30
0.0
 11
-88.79999965605481
 21
318.7723336708282
 31
0.0
  0
LINE
  5
151
330
71
100
AcDbEntity
  8
1
  6
Continuous
 62
     2
100
AcDbLine
 10
-83.79999965605384
 20
323.7723336708283
 30
0.0
 11
-88.79999965605481
 21
323.7723336708283
 31
0.0
  0
LINE
  5
152
330
71
100
AcDbEntity
  8
1
  6
Continuous
 62
     2
100
AcDbLine
 10
-83.79999965605384
 20
318.7723336708282
 30
0.0
 11
-40.29999965605572
 21
318.7723336708282
 31
0.0
  0
LINE
  5
153
330
71
100
AcDbEntity
  8
1
  6
Continuous
 62
     2
100
AcDbLine
 10
-83.79999965605384
 20
323.7723336708283
 30
0.0
 11
-83.79999965605384
 21
318.7723336708282
 31
0.0
  0
LINE
  5
154
330
71
100
AcDbEntity
  8
1
  6
Continuous
 62
     2
100
AcDbLine
 10
159.7000003439443
 20
318.7723336708282
 30
0.0
 11
109.7000003439443
 21
318.7723336708282
 31
0.0
  0
LINE
  5
155
330
71
100
AcDbEntity
  8
1
  6
Continuous
 62
     2
100
AcDbLine
 10
159.7000003439443
 20
318.7723336708282
 30
0.0
 11
159.7000003439443
 21
323.7723336708283
 31
0.0
  0
LINE
  5
156
330
71
100
AcDbEntity
  8
1
  6
Continuous
 62
     2
100
AcDbLine
 10
109.7000003439443
 20
318.7723336708282
 30
0.0
 11
109.7000003439443
 21
323.7723336708283
 31
0.0
  0
LINE
  5
157
330
71
100
AcDbEntity
  8
1
  6
Continuous
 62
     2
100
AcDbLine
 10
59.70000034394428
 20
318.7723336708282
 30
0.0
 11
109.7000003439443
 21
318.7723336708282
 31
0.0
  0
LINE
  5
158
330
71
100
AcDbEntity
  8
1
  6
Continuous
 62
     2
100
AcDbLine
 10
59.70000034394428
 20
318.7723336708282
 30
0.0
 11
59.70000034394428
 21
323.7723336708283
 31
0.0
  0
LINE
  5
159
330
71
100
AcDbEntity
  8
1
  6
Continuous
 62
     2
100
AcDbLine
 10
9.70000034394405
 20
318.7723336708282
 30
0.0
 11
59.70000034394428
 21
318.7723336708282
 31
0.0
  0
LINE
  5
15A
330
71
100
AcDbEntity
  8
1
  6
Continuous
 62
     2
100
AcDbLine
 10
9.70000034394405
 20
318.7723336708282
 30
0.0
 11
9.70000034394405
 21
323.7723336708283
 31
0.0
  0
LINE
  5
15B
330
71
100
AcDbEntity
  8
1
  6
Continuous
 62
     2
100
AcDbLine
 10
-40.29999965605572
 20
318.7723336708282
 30
0.0
 11
9.70000034394405
 21
318.7723336708282
 31
0.0
  0
LINE
  5
15C
330
71
100
AcDbEntity
  8
1
  6
Continuous
 62
     2
100
AcDbLine
 10
-40.29999965605572
 20
318.7723336708282
 30
0.0
 11
-40.29999965605572
 21
323.7723336708283
 31
0.0
  0
LINE
  5
15D
330
71
100
AcDbEntity
  8
1
  6
Continuous
 62
     6
100
AcDbLine
 10
-83.79999965605401
 20
373.7723336708284
 30
0.0
 11
-83.79999965605384
 21
323.7723336708283
 31
0.0
  0
LINE
  5
15E
330
71
100
AcDbEntity
  8
1
  6
Continuous
 62
     2
100
AcDbLine
 10
-88.79999965605481
 20
373.7723336708284
 30
0.0
 11
-88.79999965605481
 21
323.7723336708283
 31
0.0
  0
LINE
  5
15F
330
71
100
AcDbEntity
  8
1
  6
Continuous
 62
     2
100
AcDbLine
 10
-88.79999965605481
 20
373.7723336708284
 30
0.0
 11
-83.79999965605401
 21
373.7723336708284
 31
0.0
  0
LINE
  5
160
330
71
100
AcDbEntity
  8
1
  6
Continuous
 62
     6
100
AcDbLine
 10
-83.79999965605424
 20
423.7723336708282
 30
0.0
 11
-83.79999965605401
 21
373.7723336708284
 31
0.0
  0
LINE
  5
161
330
71
100
AcDbEntity
  8
1
  6
Continuous
 62
     2
100
AcDbLine
 10
-88.79999965605481
 20
423.7723336708282
 30
0.0
 11
-88.79999965605481
 21
373.7723336708284
 31
0.0
  0
LINE
  5
162
330
71
100
AcDbEntity
  8
1
  6
Continuous
 62
     2
100
AcDbLine
 10
-88.79999965605481
 20
423.7723336708282
 30
0.0
 11
-83.79999965605424
 21
423.7723336708282
 31
0.0
  0
LINE
  5
163
330
71
100
AcDbEntity
  8
1
  6
Continuous
 62
     6
100
AcDbLine
 10
-83.79999965605475
 20
473.7723336708283
 30
0.0
 11
-83.79999965605424
 21
423.7723336708282
 31
0.0
  0
LINE
  5
164
330
71
100
AcDbEntity
  8
1
  6
Continuous
 62
     2
100
AcDbLine
 10
-88.79999965605481
 20
473.7723336708283
 30
0.0
 11
-88.79999965605481
 21
423.7723336708282
 31
0.0
  0
LINE
  5
165
330
71
100
AcDbEntity
  8
1
  6
Continuous
 62
     2
100
AcDbLine
 10
-88.79999965605481
 20
473.7723336708283
 30
0.0
 11
-83.79999965605475
 21
473.7723336708283
 31
0.0
  0
LINE
  5
166
330
71
100
AcDbEntity
  8
1
  6
Continuous
 62
     6
100
AcDbLine
 10
-83.79999965605481
 20
508.7723336708283
 30
0.0
 11
-83.79999965605475
 21
473.7723336708283
 31
0.0
  0
LINE
  5
167
330
71
100
AcDbEntity
  8
1
  6
Continuous
 62
     2
100
AcDbLine
 10
-88.79999965605481
 20
528.7723336708283
 30
0.0
 11
-88.79999965605481
 21
473.7723336708283
 31
0.0
  0
LINE
  5
168
330
71
100
AcDbEntity
  8
1
  6
Continuous
 62
     2
100
AcDbLine
 10
-88.79999965605481
 20
318.7723336708282
 30
0.0
 11
-83.79999965605384
 21
318.7723336708282
 31
0.0
  0
LINE
  5
169
330
71
100
AcDbEntity
  8
1
  6
Continuous
 62
     2
100
AcDbLine
 10
59.70000034394428
 20
528.7723336708283
 30
0.0
 11
59.70000034394428
 21
519.563641826127
 31
0.0
  0
LINE
  5
16A
330
71
100
AcDbEntity
  8
1
  6
Continuous
 62
     2
100
AcDbLine
 10
59.70000034394428
 20
528.7723336708283
 30
0.0
 11
-88.79999965605481
 21
528.7723336708283
 31
0.0
  0
LINE
  5
16B
330
71
100
AcDbEntity
  8
1
  6
Continuous
 62
     2
100
AcDbLine
 10
208.2000003439433
 20
323.7723336708283
 30
0.0
 11
208.2000003439433
 21
373.7723336708284
 31
0.0
  0
LINE
  5
16C
330
71
100
AcDbEntity
  8
1
  6
Continuous
 62
     2
100
AcDbLine
 10
208.2000003439433
 20
473.7723336708283
 30
0.0
 11
208.2000003439433
 21
528.7723336708283
 31
0.0
  0
LINE
  5
16D
330
71
100
AcDbEntity
  8
1
  6
Continuous
 62
     6
100
AcDbLine
 10
203.2000003439435
 20
473.7723336708283
 30
0.0
 11
203.2000003439433
 21
508.7723336708283
 31
0.0
  0
LINE
  5
16E
330
71
100
AcDbEntity
  8
1
  6
Continuous
 62
     2
100
AcDbLine
 10
203.2000003439435
 20
473.7723336708283
 30
0.0
 11
208.2000003439433
 21
473.7723336708283
 31
0.0
  0
LINE
  5
16F
330
71
100
AcDbEntity
  8
1
  6
Continuous
 62
     2
100
AcDbLine
 10
208.2000003439433
 20
423.7723336708282
 30
0.0
 11
208.2000003439433
 21
473.7723336708283
 31
0.0
  0
LINE
  5
170
330
71
100
AcDbEntity
  8
1
  6
Continuous
 62
     6
100
AcDbLine
 10
203.2000003439447
 20
423.7723336708282
 30
0.0
 11
203.2000003439435
 21
473.7723336708283
 31
0.0
  0
LINE
  5
171
330
71
100
AcDbEntity
  8
1
  6
Continuous
 62
     2
100
AcDbLine
 10
203.2000003439447
 20
423.7723336708282
 30
0.0
 11
208.2000003439433
 21
423.7723336708282
 31
0.0
  0
LINE
  5
172
330
71
100
AcDbEntity
  8
1
  6
Continuous
 62
     2
100
AcDbLine
 10
208.2000003439433
 20
373.7723336708284
 30
0.0
 11
208.2000003439433
 21
423.7723336708282
 31
0.0
  0
LINE
  5
173
330
71
100
AcDbEntity
  8
1
  6
Continuous
 62
     6
100
AcDbLine
 10
203.2000003439452
 20
373.7723336708284
 30
0.0
 11
203.2000003439447
 21
423.7723336708282
 31
0.0
  0
LINE
  5
174
330
71
100
AcDbEntity
  8
1
  6
Continuous
 62
     2
100
AcDbLine
 10
203.2000003439452
 20
373.7723336708284
 30
0.0
 11
208.2000003439433
 21
373.7723336708284
 31
0.0
  0
LINE
  5
175
330
71
100
AcDbEntity
  8
1
  6
Continuous
 62
     6
100
AcDbLine
 10
203.2000003439433
 20
508.7723336708283
 30
0.0
 11
-83.79999965605481
 21
508.7723336708283
 31
0.0
  0
LINE
  5
176
330
71
100
AcDbEntity
  8
1
  6
Continuous
 62
     2
100
AcDbLine
 10
208.2000003439433
 20
528.7723336708283
 30
0.0
 11
59.70000034394428
 21
528.7723336708283
 31
0.0
  0
LINE
  5
177
330
71
100
AcDbEntity
  8
1
  6
Continuous
 62
     6
100
AcDbLine
 10
203.200000343946
 20
340.7723336708283
 30
0.0
 11
203.2000003439452
 21
373.7723336708284
 31
0.0
  0
LINE
  5
178
330
71
100
AcDbEntity
  8
1
  6
Continuous
 62
     2
100
AcDbLine
 10
203.2000003439443
 20
318.7723336708282
 30
0.0
 11
159.7000003439443
 21
318.7723336708282
 31
0.0
  0
LINE
  5
179
330
71
100
AcDbEntity
  8
1
  6
Continuous
 62
     2
100
AcDbLine
 10
208.2000003439433
 20
318.7723336708282
 30
0.0
 11
203.2000003439443
 21
318.7723336708282
 31
0.0
  0
LINE
  5
17A
330
71
100
AcDbEntity
  8
1
  6
Continuous
 62
     2
100
AcDbLine
 10
208.2000003439433
 20
318.7723336708282
 30
0.0
 11
208.2000003439433
 21
323.7723336708283
 31
0.0
  0
LINE
  5
17B
330
71
100
AcDbEntity
  8
1
  6
Continuous
 62
     6
100
AcDbLine
 10
73.65519581719425
 20
340.7723336708283
 30
0.0
 11
110.0551958171942
 21
340.7723336708283
 31
0.0
  0
LINE
  5
17C
330
71
100
AcDbEntity
  8
1
  6
Continuous
 62
     2
100
AcDbLine
 10
203.2000003439443
 20
323.7723336708283
 30
0.0
 11
203.2000003439443
 21
318.7723336708282
 31
0.0
  0
LINE
  5
17D
330
71
100
AcDbEntity
  8
1
  6
Continuous
 62
     2
100
AcDbLine
 10
203.2000003439443
 20
323.7723336708283
 30
0.0
 11
208.2000003439433
 21
323.7723336708283
 31
0.0
  0
LINE
  5
17E
330
71
100
AcDbEntity
  8
1
  6
Continuous
 62
     6
100
AcDbLine
 10
109.7000003439443
 20
323.7723336708283
 30
0.0
 11
91.85519581719427
 21
323.7723336708283
 31
0.0
  0
LINE
  5
17F
330
71
100
AcDbEntity
  8
1
  6
Continuous
 62
     6
100
AcDbLine
 10
159.7000003439443
 20
323.7723336708283
 30
0.0
 11
203.2000003439443
 21
323.7723336708283
 31
0.0
  0
LINE
  5
180
330
71
100
AcDbEntity
  8
1
  6
Continuous
 62
     6
100
AcDbLine
 10
9.70000034394405
 20
323.7723336708283
 30
0.0
 11
4.65519581719428
 21
323.7723336708283
 31
0.0
  0
LINE
  5
181
330
71
100
AcDbEntity
  8
1
  6
Continuous
 62
     6
100
AcDbLine
 10
59.70000034394428
 20
323.7723336708283
 30
0.0
 11
73.65519581719425
 21
323.7723336708282
 31
0.0
  0
LINE
  5
182
102
{ACAD_REACTORS
330
26C
330
26D
102
}
330
71
100
AcDbEntity
  8
0
  6
Continuous
 62
     2
100
AcDbLine
 10
81.16982175934106
 20
335.8448484270404
 30
0.0
 11
81.16982175934106
 21
336.4503837155472
 31
0.0
  0
LINE
  5
183
102
{ACAD_REACTORS
330
26C
330
26D
102
}
330
71
100
AcDbEntity
  8
0
  6
Continuous
 62
     2
100
AcDbLine
 10
81.16982175934106
 20
333.0447138204091
 30
0.0
 11
81.16982175934106
 21
333.6265652271042
 31
0.0
  0
LINE
  5
184
102
{ACAD_REACTORS
330
26E
330
26F
102
}
330
71
100
AcDbEntity
  8
0
  6
Continuous
 62
     2
100
AcDbLine
 10
103.7993081948203
 20
333.3343778885321
 30
0.0
 11
103.7993081948203
 21
331.0658336708446
 31
0.0
  0
LINE
  5
185
102
{ACAD_REACTORS
330
26E
330
26F
102
}
330
71
100
AcDbEntity
  8
0
  6
Continuous
 62
     2
100
AcDbLine
 10
102.4182544158327
 20
334.1196431946552
 30
0.0
 11
105.8031999344614
 21
334.1196431946557
 31
0.0
  0
LINE
  5
186
102
{ACAD_REACTORS
330
26E
330
26F
102
}
330
71
100
AcDbEntity
  8
0
  6
Continuous
 62
     2
100
AcDbLine
 10
105.8031999344614
 20
333.3343778885321
 30
0.0
 11
105.8031999344614
 21
334.1196431946557
 31
0.0
  0
LINE
  5
187
102
{ACAD_REACTORS
330
26E
330
26F
102
}
330
71
100
AcDbEntity
  8
0
  6
Continuous
 62
     2
100
AcDbLine
 10
104.992100896988
 20
333.3343778885321
 30
0.0
 11
105.8031999344614
 21
333.3343778885321
 31
0.0
  0
LINE
  5
188
102
{ACAD_REACTORS
330
26E
330
26F
102
}
330
71
100
AcDbEntity
  8
0
  6
Continuous
 62
     2
100
AcDbLine
 10
104.992100896988
 20
331.0658336708446
 30
0.0
 11
104.992100896988
 21
333.3343778885321
 31
0.0
  0
LINE
  5
189
102
{ACAD_REACTORS
330
26E
330
26F
102
}
330
71
100
AcDbEntity
  8
0
  6
Continuous
 62
     2
100
AcDbLine
 10
103.7993081948203
 20
331.0658336708446
 30
0.0
 11
104.992100896988
 21
331.0658336708446
 31
0.0
  0
LINE
  5
18A
102
{ACAD_REACTORS
330
264
330
265
102
}
330
71
100
AcDbEntity
  8
0
  6
Continuous
 62
     2
100
AcDbLine
 10
103.1027172567558
 20
337.4788336708301
 30
0.0
 11
101.6999930390065
 21
337.4788336708301
 31
0.0
  0
LINE
  5
18B
102
{ACAD_REACTORS
330
264
330
265
102
}
330
71
100
AcDbEntity
  8
0
  6
Continuous
 62
     2
100
AcDbLine
 10
103.1027172567558
 20
337.4788336708301
 30
0.0
 11
103.7038847786476
 21
336.7990103492746
 31
0.0
  0
LINE
  5
18C
102
{ACAD_REACTORS
330
264
330
265
102
}
330
71
100
AcDbEntity
  8
0
  6
Continuous
 62
     2
100
AcDbLine
 10
103.7038847786476
 20
336.7990103492746
 30
0.0
 11
104.3050523005404
 21
337.4788336708301
 31
0.0
  0
LINE
  5
18D
102
{ACAD_REACTORS
330
264
330
265
102
}
330
71
100
AcDbEntity
  8
0
  6
Continuous
 62
     2
100
AcDbLine
 10
104.4052468875211
 20
336.0058831407939
 30
0.0
 11
105.7077765182876
 21
337.4788336708301
 31
0.0
  0
LINE
  5
18E
102
{ACAD_REACTORS
330
264
330
265
102
}
330
71
100
AcDbEntity
  8
0
  6
Continuous
 62
     2
100
AcDbLine
 10
104.4052468875211
 20
336.0058831407939
 30
0.0
 11
105.8031999344614
 21
334.4250241470189
 31
0.0
  0
LINE
  5
18F
102
{ACAD_REACTORS
330
264
330
265
102
}
330
71
100
AcDbEntity
  8
0
  6
Continuous
 62
     2
100
AcDbLine
 10
104.4004757167131
 20
334.4250241470189
 30
0.0
 11
105.8031999344614
 21
334.4250241470189
 31
0.0
  0
LINE
  5
190
102
{ACAD_REACTORS
330
264
330
265
102
}
330
71
100
AcDbEntity
  8
0
  6
Continuous
 62
     2
100
AcDbLine
 10
103.7038847786476
 20
335.2127559323126
 30
0.0
 11
104.4004757167131
 21
334.4250241470189
 31
0.0
  0
LINE
  5
191
102
{ACAD_REACTORS
330
262
330
263
102
}
330
71
100
AcDbEntity
  8
0
  6
Continuous
 62
     2
100
AcDbLine
 10
100.2447859423639
 20
337.4788336708301
 30
0.0
 11
101.4852903526168
 21
337.4788336708301
 31
0.0
  0
LINE
  5
192
102
{ACAD_REACTORS
330
262
330
263
102
}
330
71
100
AcDbEntity
  8
0
  6
Continuous
 62
     2
100
AcDbLine
 10
101.4852903526168
 20
337.4788336708301
 30
0.0
 11
101.4852903526168
 21
334.4250241470189
 31
0.0
  0
LINE
  5
193
102
{ACAD_REACTORS
330
262
330
263
102
}
330
71
100
AcDbEntity
  8
0
  6
Continuous
 62
     2
100
AcDbLine
 10
100.2447859423639
 20
334.4250241470189
 30
0.0
 11
100.2447859423639
 21
337.4788336708301
 31
0.0
  0
LINE
  5
194
102
{ACAD_REACTORS
330
260
330
261
102
}
330
71
100
AcDbEntity
  8
0
  6
Continuous
 62
     2
100
AcDbLine
 10
98.77647585982626
 20
332.2873574803691
 30
0.0
 11
99.07664109701867
 21
333.0551724463558
 31
0.0
  0
LINE
  5
195
102
{ACAD_REACTORS
330
260
330
261
102
}
330
71
100
AcDbEntity
  8
0
  6
Continuous
 62
     2
100
AcDbLine
 10
98.29894025520545
 20
331.0658336708446
 30
0.0
 11
98.51042030868126
 21
331.6067942150625
 31
0.0
  0
LINE
  5
196
102
{ACAD_REACTORS
330
260
330
261
102
}
330
71
100
AcDbEntity
  8
0
  6
Continuous
 62
     2
100
AcDbLine
 10
98.45638889189178
 20
334.1196431946557
 30
0.0
 11
97.05843584495247
 21
331.0658336708446
 31
0.0
  0
LINE
  5
197
102
{ACAD_REACTORS
330
260
330
261
102
}
330
71
100
AcDbEntity
  8
0
  6
Continuous
 62
     2
100
AcDbLine
 10
101.0948463490848
 20
331.0658336708446
 30
0.0
 11
99.85434193883086
 21
331.0658336708446
 31
0.0
  0
LINE
  5
198
102
{ACAD_REACTORS
330
260
330
261
102
}
330
71
100
AcDbEntity
  8
0
  6
Continuous
 62
     2
100
AcDbLine
 10
98.51042030868126
 20
331.6067942150625
 30
0.0
 11
99.64286188535507
 21
331.6067942150625
 31
0.0
  0
LINE
  5
199
102
{ACAD_REACTORS
330
25E
330
25F
102
}
330
71
100
AcDbEntity
  8
0
  6
Continuous
 62
     2
100
AcDbLine
 10
94.90092370577025
 20
333.3343778885321
 30
0.0
 11
95.71202274324486
 21
333.3343778885321
 31
0.0
  0
LINE
  5
19A
102
{ACAD_REACTORS
330
25E
330
25F
102
}
330
71
100
AcDbEntity
  8
0
  6
Continuous
 62
     2
100
AcDbLine
 10
97.71591448288387
 20
334.1196431946557
 30
0.0
 11
94.90092370577025
 21
334.1196431946557
 31
0.0
  0
LINE
  5
19B
102
{ACAD_REACTORS
330
25E
330
25F
102
}
330
71
100
AcDbEntity
  8
0
  6
Continuous
 62
     2
100
AcDbLine
 10
97.71591448288387
 20
333.3343778885321
 30
0.0
 11
97.71591448288387
 21
334.1196431946557
 31
0.0
  0
LINE
  5
19C
102
{ACAD_REACTORS
330
25E
330
25F
102
}
330
71
100
AcDbEntity
  8
0
  6
Continuous
 62
     2
100
AcDbLine
 10
96.90481544541137
 20
333.3343778885321
 30
0.0
 11
97.71591448288387
 21
333.3343778885321
 31
0.0
  0
LINE
  5
19D
102
{ACAD_REACTORS
330
25E
330
25F
102
}
330
71
100
AcDbEntity
  8
0
  6
Continuous
 62
     2
100
AcDbLine
 10
96.90481544541137
 20
331.0658336708446
 30
0.0
 11
96.90481544541137
 21
333.3343778885321
 31
0.0
  0
LINE
  5
19E
102
{ACAD_REACTORS
330
25C
330
25D
102
}
330
71
100
AcDbEntity
  8
0
  6
Continuous
 62
     2
100
AcDbLine
 10
97.57293028950937
 20
334.4250241470189
 30
0.0
 11
97.57293028950937
 21
335.7337996572236
 31
0.0
  0
LINE
  5
19F
102
{ACAD_REACTORS
330
25C
330
25D
102
}
330
71
100
AcDbEntity
  8
0
  6
Continuous
 62
     2
100
AcDbLine
 10
96.38013758734286
 20
337.4788336708301
 30
0.0
 11
96.38013758734286
 21
334.4250241470189
 31
0.0
  0
LINE
  5
1A0
102
{ACAD_REACTORS
330
25C
330
25D
102
}
330
71
100
AcDbEntity
  8
0
  6
Continuous
 62
     2
100
AcDbLine
 10
97.57293028950937
 20
337.4788336708301
 30
0.0
 11
96.38013758734286
 21
337.4788336708301
 31
0.0
  0
LINE
  5
1A1
102
{ACAD_REACTORS
330
25C
330
25D
102
}
330
71
100
AcDbEntity
  8
0
  6
Continuous
 62
     2
100
AcDbLine
 10
98.81343469976338
 20
337.4788336708301
 30
0.0
 11
98.81343469976338
 21
336.1700581606249
 31
0.0
  0
LINE
  5
1A2
102
{ACAD_REACTORS
330
25A
330
25B
102
}
330
71
100
AcDbEntity
  8
0
  6
Continuous
 62
     2
100
AcDbLine
 10
91.13169876692317
 20
334.1196431946557
 30
0.0
 11
91.13169876692317
 21
331.0658336708446
 31
0.0
  0
LINE
  5
1A3
102
{ACAD_REACTORS
330
25A
330
25B
102
}
330
71
100
AcDbEntity
  8
0
  6
Continuous
 62
     2
100
AcDbLine
 10
92.32449146909076
 20
334.1196431946557
 30
0.0
 11
91.13169876692317
 21
334.1196431946557
 31
0.0
  0
LINE
  5
1A4
102
{ACAD_REACTORS
330
25A
330
25B
102
}
330
71
100
AcDbEntity
  8
0
  6
Continuous
 62
     2
100
AcDbLine
 10
93.56499587934366
 20
331.0658336708446
 30
0.0
 11
94.75778858151006
 21
331.0658336708446
 31
0.0
  0
LINE
  5
1A5
102
{ACAD_REACTORS
330
25A
330
25B
102
}
330
71
100
AcDbEntity
  8
0
  6
Continuous
 62
     2
100
AcDbLine
 10
91.13169876692317
 20
331.0658336708446
 30
0.0
 11
92.32449146909076
 21
331.0658336708446
 31
0.0
  0
LINE
  5
1A6
102
{ACAD_REACTORS
330
26A
330
26B
102
}
330
71
100
AcDbEntity
  8
0
  6
Continuous
 62
     2
100
AcDbLine
 10
94.80565122048228
 20
336.3009357116454
 30
0.0
 11
94.80565122048228
 21
336.7808200653871
 31
0.0
  0
LINE
  5
1A7
102
{ACAD_REACTORS
330
26A
330
26B
102
}
330
71
100
AcDbEntity
  8
0
  6
Continuous
 62
     2
100
AcDbLine
 10
96.14157904690995
 20
336.3009357116454
 30
0.0
 11
94.80565122048228
 21
336.3009357116454
 31
0.0
  0
LINE
  5
1A8
102
{ACAD_REACTORS
330
26A
330
26B
102
}
330
71
100
AcDbEntity
  8
0
  6
Continuous
 62
     2
100
AcDbLine
 10
96.14157904690995
 20
335.6029221062031
 30
0.0
 11
96.14157904690995
 21
336.3009357116454
 31
0.0
  0
LINE
  5
1A9
102
{ACAD_REACTORS
330
26A
330
26B
102
}
330
71
100
AcDbEntity
  8
0
  6
Continuous
 62
     2
100
AcDbLine
 10
94.80565122048228
 20
335.6029221062031
 30
0.0
 11
96.14157904690995
 21
335.6029221062031
 31
0.0
  0
LINE
  5
1AA
102
{ACAD_REACTORS
330
258
330
259
102
}
330
71
100
AcDbEntity
  8
0
  6
Continuous
 62
     2
100
AcDbLine
 10
91.32269653015535
 20
337.4788336708301
 30
0.0
 11
91.32269653015535
 21
334.4250241470189
 31
0.0
  0
LINE
  5
1AB
102
{ACAD_REACTORS
330
258
330
259
102
}
330
71
100
AcDbEntity
  8
0
  6
Continuous
 62
     2
100
AcDbLine
 10
91.32269653015535
 20
334.4250241470189
 30
0.0
 11
90.12990382798895
 21
334.4250241470189
 31
0.0
  0
LINE
  5
1AC
102
{ACAD_REACTORS
330
258
330
259
102
}
330
71
100
AcDbEntity
  8
0
  6
Continuous
 62
     2
100
AcDbLine
 10
90.12990382798895
 20
334.4250241470189
 30
0.0
 11
90.12990382798895
 21
335.5592962558627
 31
0.0
  0
LINE
  5
1AD
102
{ACAD_REACTORS
330
258
330
259
102
}
330
71
100
AcDbEntity
  8
0
  6
Continuous
 62
     2
100
AcDbLine
 10
89.08024625008147
 20
334.4250241470189
 30
0.0
 11
87.88745354791487
 21
334.4250241470189
 31
0.0
  0
LINE
  5
1AE
102
{ACAD_REACTORS
330
258
330
259
102
}
330
71
100
AcDbEntity
  8
0
  6
Continuous
 62
     2
100
AcDbLine
 10
87.88745354791487
 20
337.4788336708301
 30
0.0
 11
89.08024625008147
 21
337.4788336708301
 31
0.0
  0
LINE
  5
1AF
102
{ACAD_REACTORS
330
258
330
259
102
}
330
71
100
AcDbEntity
  8
0
  6
Continuous
 62
     2
100
AcDbLine
 10
89.08024625008147
 20
337.4788336708301
 30
0.0
 11
89.08024625008147
 21
336.4100003374955
 31
0.0
  0
LINE
  5
1B0
102
{ACAD_REACTORS
330
258
330
259
102
}
330
71
100
AcDbEntity
  8
0
  6
Continuous
 62
     2
100
AcDbLine
 10
89.08024625008147
 20
336.4100003374955
 30
0.0
 11
90.12990382798895
 21
336.4100003374955
 31
0.0
  0
LINE
  5
1B1
102
{ACAD_REACTORS
330
266
330
267
102
}
330
71
100
AcDbEntity
  8
0
  6
Continuous
 62
     2
100
AcDbLine
 10
85.93127351636127
 20
336.81572782539
 30
0.0
 11
86.24856857790317
 21
336.81572782539
 31
0.0
  0
LINE
  5
1B2
102
{ACAD_REACTORS
330
266
330
267
102
}
330
71
100
AcDbEntity
  8
0
  6
Continuous
 62
     2
100
AcDbLine
 10
85.93127351636127
 20
336.1100001760478
 30
0.0
 11
86.24856857790317
 21
336.1100001760478
 31
0.0
  0
LINE
  5
1B3
102
{ACAD_REACTORS
330
266
330
267
102
}
330
71
100
AcDbEntity
  8
0
  6
Continuous
 62
     2
100
AcDbLine
 10
84.69076910610715
 20
337.4788336708301
 30
0.0
 11
84.69076910610715
 21
334.4250241470189
 31
0.0
  0
LINE
  5
1B4
102
{ACAD_REACTORS
330
266
330
267
102
}
330
71
100
AcDbEntity
  8
0
  6
Continuous
 62
     2
100
AcDbLine
 10
84.69076910610715
 20
337.4788336708301
 30
0.0
 11
86.69004110414156
 21
337.4788336708301
 31
0.0
  0
LINE
  5
1B5
102
{ACAD_REACTORS
330
266
330
267
102
}
330
71
100
AcDbEntity
  8
0
  6
Continuous
 62
     2
100
AcDbLine
 10
85.93127351636127
 20
335.3681023881627
 30
0.0
 11
86.69004110414156
 21
335.3681023881627
 31
0.0
  0
LINE
  5
1B6
102
{ACAD_REACTORS
330
26C
330
26D
102
}
330
71
100
AcDbEntity
  8
0
  6
Continuous
 62
     2
100
AcDbLine
 10
78.59427307281047
 20
336.4505611921953
 30
0.0
 11
78.59427307281047
 21
332.0941061494782
 31
0.0
  0
LINE
  5
1B7
102
{ACAD_REACTORS
330
26C
330
26D
102
}
330
71
100
AcDbEntity
  8
0
  6
Continuous
 62
     2
100
AcDbLine
 10
78.90998999588615
 20
336.7662781152715
 30
0.0
 11
80.38582325689578
 21
336.7662781152715
 31
0.0
  0
LINE
  5
1B8
102
{ACAD_REACTORS
330
26C
330
26D
102
}
330
71
100
AcDbEntity
  8
0
  6
Continuous
 62
     2
100
AcDbLine
 10
80.70154017997237
 20
335.8465365731348
 30
0.0
 11
80.70154017997237
 21
336.4505611921953
 31
0.0
  0
LINE
  5
1B9
102
{ACAD_REACTORS
330
26C
330
26D
102
}
330
71
100
AcDbEntity
  8
0
  6
Continuous
 62
     2
100
AcDbLine
 10
80.70154017997237
 20
332.0941061494782
 30
0.0
 11
80.70154017997237
 21
333.6248770810098
 31
0.0
  0
LINE
  5
1BA
102
{ACAD_REACTORS
330
26C
330
26D
102
}
330
71
100
AcDbEntity
  8
0
  6
Continuous
 62
     2
100
AcDbLine
 10
83.78940740985647
 20
331.0658336708446
 30
0.0
 11
78.31609531913966
 21
331.0658336708446
 31
0.0
  0
LINE
  5
1BB
102
{ACAD_REACTORS
330
26C
330
26D
102
}
330
71
100
AcDbEntity
  8
0
  6
Continuous
 62
     2
100
AcDbLine
 10
84.21365202524035
 20
337.0545890554281
 30
0.0
 11
84.21365202524035
 21
331.4900782862279
 31
0.0
  0
LINE
  5
1BC
102
{ACAD_REACTORS
330
26C
330
26D
102
}
330
71
100
AcDbEntity
  8
0
  6
Continuous
 62
     2
100
AcDbLine
 10
78.31609531913966
 20
337.4788336708119
 30
0.0
 11
83.78940740985647
 21
337.4788336708119
 31
0.0
  0
LINE
  5
1BD
102
{ACAD_REACTORS
330
26C
330
26D
102
}
330
71
100
AcDbEntity
  8
0
  6
Continuous
 62
     2
100
AcDbLine
 10
77.89185070375686
 20
337.0545890554281
 30
0.0
 11
77.89185070375686
 21
331.4900782862279
 31
0.0
  0
LINE
  5
1BE
102
{ACAD_REACTORS
330
26C
330
26D
102
}
330
71
100
AcDbEntity
  8
0
  6
Continuous
 62
     2
100
AcDbLine
 10
80.38582325689578
 20
331.7783892264015
 30
0.0
 11
78.90998999588615
 21
331.7783892264015
 31
0.0
  0
LINE
  5
1BF
102
{ACAD_REACTORS
330
266
330
267
102
}
330
71
100
AcDbEntity
  8
0
  6
Continuous
 62
     2
100
AcDbLine
 10
85.93127351636127
 20
334.4250241470189
 30
0.0
 11
85.93127351636127
 21
335.3681023881627
 31
0.0
  0
LINE
  5
1C0
102
{ACAD_REACTORS
330
266
330
267
102
}
330
71
100
AcDbEntity
  8
0
  6
Continuous
 62
     2
100
AcDbLine
 10
84.69076910610715
 20
334.4250241470189
 30
0.0
 11
85.93127351636127
 21
334.4250241470189
 31
0.0
  0
LINE
  5
1C1
102
{ACAD_REACTORS
330
266
330
267
102
}
330
71
100
AcDbEntity
  8
0
  6
Continuous
 62
     2
100
AcDbLine
 10
85.93127351636127
 20
336.1100001760478
 30
0.0
 11
85.93127351636127
 21
336.81572782539
 31
0.0
  0
LINE
  5
1C2
102
{ACAD_REACTORS
330
258
330
259
102
}
330
71
100
AcDbEntity
  8
0
  6
Continuous
 62
     2
100
AcDbLine
 10
87.88745354791487
 20
337.4788336708301
 30
0.0
 11
87.88745354791487
 21
334.4250241470189
 31
0.0
  0
LINE
  5
1C3
102
{ACAD_REACTORS
330
258
330
259
102
}
330
71
100
AcDbEntity
  8
0
  6
Continuous
 62
     2
100
AcDbLine
 10
89.08024625008147
 20
335.5592962558627
 30
0.0
 11
89.08024625008147
 21
334.4250241470189
 31
0.0
  0
LINE
  5
1C4
102
{ACAD_REACTORS
330
258
330
259
102
}
330
71
100
AcDbEntity
  8
0
  6
Continuous
 62
     2
100
AcDbLine
 10
90.12990382798895
 20
335.5592962558627
 30
0.0
 11
89.08024625008147
 21
335.5592962558627
 31
0.0
  0
LINE
  5
1C5
102
{ACAD_REACTORS
330
258
330
259
102
}
330
71
100
AcDbEntity
  8
0
  6
Continuous
 62
     2
100
AcDbLine
 10
90.12990382798895
 20
337.4788336708301
 30
0.0
 11
91.32269653015535
 21
337.4788336708301
 31
0.0
  0
LINE
  5
1C6
102
{ACAD_REACTORS
330
258
330
259
102
}
330
71
100
AcDbEntity
  8
0
  6
Continuous
 62
     2
100
AcDbLine
 10
90.12990382798895
 20
336.4100003374955
 30
0.0
 11
90.12990382798895
 21
337.4788336708301
 31
0.0
  0
LINE
  5
1C7
102
{ACAD_REACTORS
330
26A
330
26B
102
}
330
71
100
AcDbEntity
  8
0
  6
Continuous
 62
     2
100
AcDbLine
 10
96.14157904690995
 20
336.7808200653871
 30
0.0
 11
96.14157904690995
 21
337.4788336708301
 31
0.0
  0
LINE
  5
1C8
102
{ACAD_REACTORS
330
26A
330
26B
102
}
330
71
100
AcDbEntity
  8
0
  6
Continuous
 62
     2
100
AcDbLine
 10
92.99125932312896
 20
337.4788336708301
 30
0.0
 11
96.14157904690995
 21
337.4788336708301
 31
0.0
  0
LINE
  5
1C9
102
{ACAD_REACTORS
330
26A
330
26B
102
}
330
71
100
AcDbEntity
  8
0
  6
Continuous
 62
     2
100
AcDbLine
 10
92.99125932312896
 20
334.4250241470189
 30
0.0
 11
96.14157904690995
 21
334.4250241470189
 31
0.0
  0
LINE
  5
1CA
102
{ACAD_REACTORS
330
26A
330
26B
102
}
330
71
100
AcDbEntity
  8
0
  6
Continuous
 62
     2
100
AcDbLine
 10
96.14157904690995
 20
334.4250241470189
 30
0.0
 11
96.14157904690995
 21
335.1230377524614
 31
0.0
  0
LINE
  5
1CB
102
{ACAD_REACTORS
330
26A
330
26B
102
}
330
71
100
AcDbEntity
  8
0
  6
Continuous
 62
     2
100
AcDbLine
 10
96.14157904690995
 20
335.1230377524614
 30
0.0
 11
94.80565122048228
 21
335.1230377524614
 31
0.0
  0
LINE
  5
1CC
102
{ACAD_REACTORS
330
26A
330
26B
102
}
330
71
100
AcDbEntity
  8
0
  6
Continuous
 62
     2
100
AcDbLine
 10
94.80565122048228
 20
335.1230377524614
 30
0.0
 11
94.80565122048228
 21
335.6029221062031
 31
0.0
  0
LINE
  5
1CD
102
{ACAD_REACTORS
330
26A
330
26B
102
}
330
71
100
AcDbEntity
  8
0
  6
Continuous
 62
     2
100
AcDbLine
 10
94.80565122048228
 20
336.7808200653871
 30
0.0
 11
96.14157904690995
 21
336.7808200653871
 31
0.0
  0
LINE
  5
1CE
102
{ACAD_REACTORS
330
25A
330
25B
102
}
330
71
100
AcDbEntity
  8
0
  6
Continuous
 62
     2
100
AcDbLine
 10
92.32449146909076
 20
331.0658336708446
 30
0.0
 11
92.32449146909076
 21
332.3746091810492
 31
0.0
  0
LINE
  5
1CF
102
{ACAD_REACTORS
330
25A
330
25B
102
}
330
71
100
AcDbEntity
  8
0
  6
Continuous
 62
     2
100
AcDbLine
 10
92.32449146909076
 20
332.3746091810492
 30
0.0
 11
93.56499587934366
 21
331.0658336708446
 31
0.0
  0
LINE
  5
1D0
102
{ACAD_REACTORS
330
25A
330
25B
102
}
330
71
100
AcDbEntity
  8
0
  6
Continuous
 62
     2
100
AcDbLine
 10
94.75778858151006
 20
331.0658336708446
 30
0.0
 11
94.75778858151006
 21
334.1196431946557
 31
0.0
  0
LINE
  5
1D1
102
{ACAD_REACTORS
330
25A
330
25B
102
}
330
71
100
AcDbEntity
  8
0
  6
Continuous
 62
     2
100
AcDbLine
 10
94.75778858151006
 20
334.1196431946557
 30
0.0
 11
93.56499587934366
 21
334.1196431946557
 31
0.0
  0
LINE
  5
1D2
102
{ACAD_REACTORS
330
25A
330
25B
102
}
330
71
100
AcDbEntity
  8
0
  6
Continuous
 62
     2
100
AcDbLine
 10
93.56499587934366
 20
334.1196431946557
 30
0.0
 11
93.56499587934366
 21
332.8108676844506
 31
0.0
  0
LINE
  5
1D3
102
{ACAD_REACTORS
330
25A
330
25B
102
}
330
71
100
AcDbEntity
  8
0
  6
Continuous
 62
     2
100
AcDbLine
 10
93.56499587934366
 20
332.8108676844506
 30
0.0
 11
92.32449146909076
 21
334.1196431946557
 31
0.0
  0
LINE
  5
1D4
102
{ACAD_REACTORS
330
25C
330
25D
102
}
330
71
100
AcDbEntity
  8
0
  6
Continuous
 62
     2
100
AcDbLine
 10
97.57293028950937
 20
335.7337996572236
 30
0.0
 11
98.81343469976338
 21
334.4250241470189
 31
0.0
  0
LINE
  5
1D5
102
{ACAD_REACTORS
330
25C
330
25D
102
}
330
71
100
AcDbEntity
  8
0
  6
Continuous
 62
     2
100
AcDbLine
 10
98.81343469976338
 20
334.4250241470189
 30
0.0
 11
100.00622740193
 21
334.4250241470189
 31
0.0
  0
LINE
  5
1D6
102
{ACAD_REACTORS
330
25C
330
25D
102
}
330
71
100
AcDbEntity
  8
0
  6
Continuous
 62
     2
100
AcDbLine
 10
100.00622740193
 20
334.4250241470189
 30
0.0
 11
100.00622740193
 21
337.4788336708301
 31
0.0
  0
LINE
  5
1D7
102
{ACAD_REACTORS
330
25C
330
25D
102
}
330
71
100
AcDbEntity
  8
0
  6
Continuous
 62
     2
100
AcDbLine
 10
100.00622740193
 20
337.4788336708301
 30
0.0
 11
98.81343469976338
 21
337.4788336708301
 31
0.0
  0
LINE
  5
1D8
102
{ACAD_REACTORS
330
25C
330
25D
102
}
330
71
100
AcDbEntity
  8
0
  6
Continuous
 62
     2
100
AcDbLine
 10
98.81343469976338
 20
336.1700581606249
 30
0.0
 11
97.57293028950937
 21
337.4788336708301
 31
0.0
  0
LINE
  5
1D9
102
{ACAD_REACTORS
330
25C
330
25D
102
}
330
71
100
AcDbEntity
  8
0
  6
Continuous
 62
     2
100
AcDbLine
 10
96.38013758734286
 20
334.4250241470189
 30
0.0
 11
97.57293028950937
 21
334.4250241470189
 31
0.0
  0
LINE
  5
1DA
102
{ACAD_REACTORS
330
25E
330
25F
102
}
330
71
100
AcDbEntity
  8
0
  6
Continuous
 62
     2
100
AcDbLine
 10
94.90092370577025
 20
334.1196431946557
 30
0.0
 11
94.90092370577025
 21
333.3343778885321
 31
0.0
  0
LINE
  5
1DB
102
{ACAD_REACTORS
330
25E
330
25F
102
}
330
71
100
AcDbEntity
  8
0
  6
Continuous
 62
     2
100
AcDbLine
 10
95.71202274324486
 20
333.3343778885321
 30
0.0
 11
95.71202274324486
 21
331.0658336708446
 31
0.0
  0
LINE
  5
1DC
102
{ACAD_REACTORS
330
25E
330
25F
102
}
330
71
100
AcDbEntity
  8
0
  6
Continuous
 62
     2
100
AcDbLine
 10
95.71202274324486
 20
331.0658336708446
 30
0.0
 11
96.90481544541137
 21
331.0658336708446
 31
0.0
  0
LINE
  5
1DD
102
{ACAD_REACTORS
330
260
330
261
102
}
330
71
100
AcDbEntity
  8
0
  6
Continuous
 62
     2
100
AcDbLine
 10
99.85434193883086
 20
331.0658336708446
 30
0.0
 11
99.64286188535507
 21
331.6067942150625
 31
0.0
  0
LINE
  5
1DE
102
{ACAD_REACTORS
330
260
330
261
102
}
330
71
100
AcDbEntity
  8
0
  6
Continuous
 62
     2
100
AcDbLine
 10
99.69689330214447
 20
334.1196431946557
 30
0.0
 11
101.0948463490848
 21
331.0658336708446
 31
0.0
  0
LINE
  5
1DF
102
{ACAD_REACTORS
330
260
330
261
102
}
330
71
100
AcDbEntity
  8
0
  6
Continuous
 62
     2
100
AcDbLine
 10
98.45638889189178
 20
334.1196431946557
 30
0.0
 11
99.69689330214447
 21
334.1196431946557
 31
0.0
  0
LINE
  5
1E0
102
{ACAD_REACTORS
330
260
330
261
102
}
330
71
100
AcDbEntity
  8
0
  6
Continuous
 62
     2
100
AcDbLine
 10
97.05843584495247
 20
331.0658336708446
 30
0.0
 11
98.29894025520545
 21
331.0658336708446
 31
0.0
  0
LINE
  5
1E1
102
{ACAD_REACTORS
330
260
330
261
102
}
330
71
100
AcDbEntity
  8
0
  6
Continuous
 62
     2
100
AcDbLine
 10
98.77647585982626
 20
332.2873574803691
 30
0.0
 11
99.37680633420877
 21
332.2873574803691
 31
0.0
  0
LINE
  5
1E2
102
{ACAD_REACTORS
330
260
330
261
102
}
330
71
100
AcDbEntity
  8
0
  6
Continuous
 62
     2
100
AcDbLine
 10
99.37680633420877
 20
332.2873574803691
 30
0.0
 11
99.07664109701867
 21
333.0551724463558
 31
0.0
  0
LINE
  5
1E3
102
{ACAD_REACTORS
330
262
330
263
102
}
330
71
100
AcDbEntity
  8
0
  6
Continuous
 62
     2
100
AcDbLine
 10
101.4852903526168
 20
334.4250241470189
 30
0.0
 11
100.2447859423639
 21
334.4250241470189
 31
0.0
  0
LINE
  5
1E4
102
{ACAD_REACTORS
330
264
330
265
102
}
330
71
100
AcDbEntity
  8
0
  6
Continuous
 62
     2
100
AcDbLine
 10
103.0072938405819
 20
334.4250241470189
 30
0.0
 11
101.6045696228337
 21
334.4250241470189
 31
0.0
  0
LINE
  5
1E5
102
{ACAD_REACTORS
330
264
330
265
102
}
330
71
100
AcDbEntity
  8
0
  6
Continuous
 62
     2
100
AcDbLine
 10
103.0072938405819
 20
334.4250241470189
 30
0.0
 11
103.7038847786476
 21
335.2127559323126
 31
0.0
  0
LINE
  5
1E6
102
{ACAD_REACTORS
330
264
330
265
102
}
330
71
100
AcDbEntity
  8
0
  6
Continuous
 62
     2
100
AcDbLine
 10
104.3050523005404
 20
337.4788336708301
 30
0.0
 11
105.7077765182876
 21
337.4788336708301
 31
0.0
  0
LINE
  5
1E7
102
{ACAD_REACTORS
330
264
330
265
102
}
330
71
100
AcDbEntity
  8
0
  6
Continuous
 62
     2
100
AcDbLine
 10
101.6999930390065
 20
337.4788336708301
 30
0.0
 11
103.002522669774
 21
336.0058831407939
 31
0.0
  0
LINE
  5
1E8
102
{ACAD_REACTORS
330
264
330
265
102
}
330
71
100
AcDbEntity
  8
0
  6
Continuous
 62
     2
100
AcDbLine
 10
101.6045696228337
 20
334.4250241470189
 30
0.0
 11
103.002522669774
 21
336.0058831407939
 31
0.0
  0
LINE
  5
1E9
102
{ACAD_REACTORS
330
26E
330
26F
102
}
330
71
100
AcDbEntity
  8
0
  6
Continuous
 62
     2
100
AcDbLine
 10
103.4653262382136
 20
332.1128540790082
 30
0.0
 11
103.4653262382136
 21
331.2403370722049
 31
0.0
  0
LINE
  5
1EA
102
{ACAD_REACTORS
330
26E
330
26F
102
}
330
71
100
AcDbEntity
  8
0
  6
Continuous
 62
     2
100
AcDbLine
 10
102.6956688952522
 20
333.3343778885321
 30
0.0
 11
103.7993081948203
 21
333.3343778885321
 31
0.0
  0
LINE
  5
1EB
102
{ACAD_REACTORS
330
270
330
271
102
}
330
71
100
AcDbEntity
  8
0
  6
Continuous
 62
     2
100
AcDbLine
 10
87.36262475896166
 20
332.1128540790087
 30
0.0
 11
87.36262475896166
 21
331.2403370722055
 31
0.0
  0
LINE
  5
1EC
102
{ACAD_REACTORS
330
270
330
271
102
}
330
71
100
AcDbEntity
  8
0
  6
Continuous
 62
     2
100
AcDbLine
 10
87.36262475896166
 20
333.0726227864916
 30
0.0
 11
87.36262475896166
 21
333.9451397932949
 31
0.0
  0
LINE
  5
1ED
330
71
100
AcDbEntity
  8
1
  6
Continuous
 62
     7
100
AcDbLine
 10
203.2000003439456
 20
332.2723336708283
 30
0.0
 11
110.0551958171942
 21
332.2723336708283
 31
0.0
  0
LINE
  5
1EE
330
71
100
AcDbEntity
  8
1
  6
Continuous
 62
     6
100
AcDbLine
 10
4.65519581719428
 20
323.7723336708283
 30
0.0
 11
-40.29999965605572
 21
323.7723336708283
 31
0.0
  0
LINE
  5
1EF
330
71
100
AcDbEntity
  8
1
  6
Continuous
 62
     7
100
AcDbLine
 10
194.2815920622668
 20
349.2723336708283
 30
0.0
 11
194.2815920622668
 21
340.7723336708283
 31
0.0
  0
LINE
  5
1F0
330
71
100
AcDbEntity
  8
1
  6
Continuous
 62
     7
100
AcDbLine
 10
167.7815920622672
 20
349.2723336708283
 30
0.0
 11
167.7815920622672
 21
340.7723336708283
 31
0.0
  0
LINE
  5
1F1
330
71
100
AcDbEntity
  8
1
  6
Continuous
 62
     7
100
AcDbLine
 10
110.0551958171942
 20
340.7723336708283
 30
0.0
 11
110.0551958171942
 21
349.2723336708283
 31
0.0
  0
LINE
  5
1F2
330
71
100
AcDbEntity
  8
1
  6
Continuous
 62
     7
100
AcDbLine
 10
73.65519581719425
 20
340.7723336708283
 30
0.0
 11
73.65519581719425
 21
349.2723336708283
 31
0.0
  0
LINE
  5
1F3
330
71
100
AcDbEntity
  8
1
  6
Continuous
 62
     6
100
AcDbLine
 10
110.0551958171942
 20
340.7723336708283
 30
0.0
 11
203.200000343946
 21
340.7723336708283
 31
0.0
  0
LINE
  5
1F4
330
71
100
AcDbEntity
  8
1
  6
Continuous
 62
     7
100
AcDbLine
 10
137.9551958171943
 20
332.2723336708282
 30
0.0
 11
137.9551958171943
 21
340.7723336708283
 31
0.0
  0
LINE
  5
1F5
330
71
100
AcDbEntity
  8
1
  6
PHANTOM
 62
     2
100
AcDbLine
 10
89.14185070375686
 20
344.8973336708282
 30
0.0
 11
83.64185070375686
 21
344.8973336708282
 31
0.0
  0
LINE
  5
1F6
330
71
100
AcDbEntity
  8
1
  6
PHANTOM
 62
     2
100
AcDbLine
 10
86.39185070375686
 20
347.6473336708282
 30
0.0
 11
86.39185070375686
 21
342.1473336708282
 31
0.0
  0
LINE
  5
1F7
330
71
100
AcDbEntity
  8
1
  6
DOT_CENTER
 62
     2
100
AcDbLine
 10
77.64185070375686
 20
344.8973336708282
 30
0.0
 11
83.14185070375686
 21
344.8973336708282
 31
0.0
  0
ARC
  5
1F8
102
{ACAD_REACTORS
330
270
330
271
102
}
330
71
100
AcDbEntity
  8
0
  6
Continuous
 62
     2
100
AcDbCircle
 10
86.02669684184386
 20
329.280057487494
 30
0.0
 40
4.852596863498095
100
AcDbArc
 50
74.02000874164747
 51
84.84185523037509
  0
ARC
  5
1F9
102
{ACAD_REACTORS
330
270
330
271
102
}
330
71
100
AcDbEntity
  8
0
  6
Continuous
 62
     2
100
AcDbCircle
 10
86.60273745059757
 20
332.4358178433783
 30
0.0
 40
0.9059297849853228
100
AcDbArc
 50
71.55192388185348
 51
113.372277888129
  0
ARC
  5
1FA
102
{ACAD_REACTORS
330
270
330
271
102
}
330
71
100
AcDbEntity
  8
0
  6
Continuous
 62
     2
100
AcDbCircle
 10
86.44629741789555
 20
332.3876670034114
 30
0.0
 40
0.5115800601948034
100
AcDbArc
 50
208.5214732576956
 51
246.6277221118274
  0
ARC
  5
1FB
102
{ACAD_REACTORS
330
270
330
271
102
}
330
71
100
AcDbEntity
  8
0
  6
Continuous
 62
     2
100
AcDbCircle
 10
86.60273745059757
 20
332.7496590221214
 30
0.0
 40
0.9059297849849192
100
AcDbArc
 50
246.627722111871
 51
288.4480761181579
  0
ARC
  5
1FC
102
{ACAD_REACTORS
330
270
330
271
102
}
330
71
100
AcDbEntity
  8
0
  6
Continuous
 62
     2
100
AcDbCircle
 10
86.18456971693678
 20
334.0032047981586
 30
0.0
 40
2.227384008972764
100
AcDbArc
 50
288.4480761181326
 51
301.9309089499589
  0
ARC
  5
1FD
102
{ACAD_REACTORS
330
26C
330
26D
102
}
330
71
100
AcDbEntity
  8
0
  6
Continuous
 62
     2
100
AcDbCircle
 10
80.95949598432998
 20
334.7357068270726
 30
0.0
 40
0.9118481501444333
100
AcDbArc
 50
295.3740086781772
 51
64.62599132180748
  0
ARC
  5
1FE
102
{ACAD_REACTORS
330
26C
330
26D
102
}
330
71
100
AcDbEntity
  8
0
  6
Continuous
 62
     2
100
AcDbCircle
 10
81.48553868241785
 20
336.4503837155472
 30
0.0
 40
0.3157169230760711
100
AcDbArc
 50
90.18896704254594
 51
180.0
  0
ARC
  5
1FF
102
{ACAD_REACTORS
330
26E
330
26F
102
}
330
71
100
AcDbEntity
  8
0
  6
Continuous
 62
     2
100
AcDbCircle
 10
102.6956688952522
 20
332.379854881706
 30
0.0
 40
0.9545230068260935
100
AcDbArc
 50
90.0
 51
109.3371432194312
  0
ARC
  5
200
102
{ACAD_REACTORS
330
26E
330
26F
102
}
330
71
100
AcDbEntity
  8
0
  6
Continuous
 62
     2
100
AcDbCircle
 10
102.9263561552299
 20
332.5927384327499
 30
0.0
 40
0.9410597353348789
100
AcDbArc
 50
151.478526742364
 51
208.5214732576695
  0
ARC
  5
201
102
{ACAD_REACTORS
330
26E
330
26F
102
}
330
71
100
AcDbEntity
  8
0
  6
Continuous
 62
     2
100
AcDbCircle
 10
102.7054389298516
 20
332.7496590221214
 30
0.0
 40
0.9059297849852744
100
AcDbArc
 50
246.6277221118191
 51
288.4480761180806
  0
ARC
  5
202
102
{ACAD_REACTORS
330
26E
330
26F
102
}
330
71
100
AcDbEntity
  8
0
  6
Continuous
 62
     2
100
AcDbCircle
 10
102.2872711961897
 20
334.003204798158
 30
0.0
 40
2.227384008972768
100
AcDbArc
 50
288.4480761181329
 51
301.930908949939
  0
ARC
  5
203
102
{ACAD_REACTORS
330
26E
330
26F
102
}
330
71
100
AcDbEntity
  8
0
  6
Continuous
 62
     2
100
AcDbCircle
 10
102.1293983210969
 20
335.9054193780063
 30
0.0
 40
4.852596863498824
100
AcDbArc
 50
275.1581447696362
 51
285.9799912583386
  0
ARC
  5
204
102
{ACAD_REACTORS
330
26E
330
26F
102
}
330
71
100
AcDbEntity
  8
0
  6
Continuous
 62
     2
100
AcDbCircle
 10
102.4182544158327
 20
332.7055287947847
 30
0.0
 40
1.639695123940434
100
AcDbArc
 50
195.0618917771014
 51
275.1581447696762
  0
ARC
  5
205
102
{ACAD_REACTORS
330
266
330
267
102
}
330
71
100
AcDbEntity
  8
0
  6
Continuous
 62
     2
100
AcDbCircle
 10
86.69004110414156
 20
336.4234680294964
 30
0.0
 40
1.055365641333708
100
AcDbArc
 50
270.0
 51
90.0
  0
ARC
  5
206
102
{ACAD_REACTORS
330
26C
330
26D
102
}
330
71
100
AcDbEntity
  8
0
  6
Continuous
 62
     2
100
AcDbCircle
 10
78.90998999588615
 20
332.0941061494782
 30
0.0
 40
0.3157169230756836
100
AcDbArc
 50
180.0
 51
270.0
  0
ARC
  5
207
102
{ACAD_REACTORS
330
26C
330
26D
102
}
330
71
100
AcDbEntity
  8
0
  6
Continuous
 62
     2
100
AcDbCircle
 10
80.38582325689578
 20
336.4505611921953
 30
0.0
 40
0.315716923076593
100
AcDbArc
 50
0.0
 51
90.0
  0
ARC
  5
208
102
{ACAD_REACTORS
330
26C
330
26D
102
}
330
71
100
AcDbEntity
  8
0
  6
Continuous
 62
     2
100
AcDbCircle
 10
80.38582325689578
 20
335.8465365731348
 30
0.0
 40
0.3157169230761717
100
AcDbArc
 50
295.1944106485354
 51
0.0
  0
ARC
  5
209
102
{ACAD_REACTORS
330
26C
330
26D
102
}
330
71
100
AcDbEntity
  8
0
  6
Continuous
 62
     2
100
AcDbCircle
 10
80.38582325689578
 20
332.0941061494782
 30
0.0
 40
0.3157169230767067
100
AcDbArc
 50
270.0
 51
0.0
  0
ARC
  5
20A
102
{ACAD_REACTORS
330
26C
330
26D
102
}
330
71
100
AcDbEntity
  8
0
  6
Continuous
 62
     2
100
AcDbCircle
 10
78.31609531913966
 20
337.0545890554281
 30
0.0
 40
0.4242446153838273
100
AcDbArc
 50
90.0
 51
180.0
  0
ARC
  5
20B
102
{ACAD_REACTORS
330
26C
330
26D
102
}
330
71
100
AcDbEntity
  8
0
  6
Continuous
 62
     2
100
AcDbCircle
 10
83.78940740985647
 20
337.0545890554281
 30
0.0
 40
0.4242446153838841
100
AcDbArc
 50
0.0
 51
90.0
  0
ARC
  5
20C
102
{ACAD_REACTORS
330
26C
330
26D
102
}
330
71
100
AcDbEntity
  8
0
  6
Continuous
 62
     2
100
AcDbCircle
 10
83.78940740985647
 20
331.4900782862279
 30
0.0
 40
0.4242446153833157
100
AcDbArc
 50
270.0
 51
0.0
  0
ARC
  5
20D
102
{ACAD_REACTORS
330
26A
330
26B
102
}
330
71
100
AcDbEntity
  8
0
  6
Continuous
 62
     2
100
AcDbCircle
 10
93.00779129694797
 20
335.9519289089242
 30
0.0
 40
0.7717997786796023
100
AcDbArc
 50
321.8795802028471
 51
38.12041979716289
  0
ARC
  5
20E
102
{ACAD_REACTORS
330
26A
330
26B
102
}
330
71
100
AcDbEntity
  8
0
  6
Continuous
 62
     2
100
AcDbCircle
 10
93.20753133329416
 20
335.7951977308038
 30
0.0
 40
0.5179085730134372
100
AcDbArc
 50
218.1204197971511
 51
321.8795802028566
  0
ARC
  5
20F
102
{ACAD_REACTORS
330
268
330
269
102
}
330
71
100
AcDbEntity
  8
0
  6
Continuous
 62
     2
100
AcDbCircle
 10
89.52752374433396
 20
332.5927384327499
 30
0.0
 40
1.458034083652028
100
AcDbArc
 50
297.5481481757005
 51
62.45185182429842
  0
ARC
  5
210
102
{ACAD_REACTORS
330
268
330
269
102
}
330
71
100
AcDbEntity
  8
0
  6
Continuous
 62
     2
100
AcDbCircle
 10
88.96564396066736
 20
332.5927384327499
 30
0.0
 40
1.458034083651465
100
AcDbArc
 50
117.548148175663
 51
242.451851824338
  0
ARC
  5
211
102
{ACAD_REACTORS
330
268
330
269
102
}
330
71
100
AcDbEntity
  8
0
  6
Continuous
 62
     2
100
AcDbCircle
 10
89.24658385250066
 20
332.0541634224471
 30
0.0
 40
2.065479772208543
100
AcDbArc
 50
62.451851824306
 51
117.5481481756667
  0
ARC
  5
212
102
{ACAD_REACTORS
330
268
330
269
102
}
330
71
100
AcDbEntity
  8
0
  6
Continuous
 62
     2
100
AcDbCircle
 10
89.24658385250066
 20
333.1313134430532
 30
0.0
 40
2.065479772208534
100
AcDbArc
 50
242.4518518243405
 51
297.5481481756867
  0
ARC
  5
213
102
{ACAD_REACTORS
330
26A
330
26B
102
}
330
71
100
AcDbEntity
  8
0
  6
Continuous
 62
     2
100
AcDbCircle
 10
93.40727136964045
 20
335.9519289089242
 30
0.0
 40
0.7717997786797075
100
AcDbArc
 50
141.8795802028371
 51
218.1204197971529
  0
ARC
  5
214
102
{ACAD_REACTORS
330
26A
330
26B
102
}
330
71
100
AcDbEntity
  8
0
  6
Continuous
 62
     2
100
AcDbCircle
 10
93.20753133329416
 20
336.1086600870447
 30
0.0
 40
0.5179085730135266
100
AcDbArc
 50
38.12041979714334
 51
141.8795802028489
  0
ARC
  5
215
102
{ACAD_REACTORS
330
26C
330
26D
102
}
330
71
100
AcDbEntity
  8
0
  6
Continuous
 62
     2
100
AcDbCircle
 10
78.31609531913966
 20
331.4900782862279
 30
0.0
 40
0.4242446153828041
100
AcDbArc
 50
180.0
 51
270.0
  0
ARC
  5
216
102
{ACAD_REACTORS
330
26C
330
26D
102
}
330
71
100
AcDbEntity
  8
0
  6
Continuous
 62
     2
100
AcDbCircle
 10
80.38582325689578
 20
333.6248770810098
 30
0.0
 40
0.315716923076593
100
AcDbArc
 50
0.0
 51
64.80558935146027
  0
ARC
  5
217
102
{ACAD_REACTORS
330
26C
330
26D
102
}
330
71
100
AcDbEntity
  8
0
  6
Continuous
 62
     2
100
AcDbCircle
 10
80.90840770447076
 20
334.7357068270726
 30
0.0
 40
0.9118975235575889
100
AcDbArc
 50
115.194410648529
 51
244.8055893514878
  0
ARC
  5
218
102
{ACAD_REACTORS
330
26C
330
26D
102
}
330
71
100
AcDbEntity
  8
0
  6
Continuous
 62
     2
100
AcDbCircle
 10
78.90998999588615
 20
336.4505611921953
 30
0.0
 40
0.3157169230761951
100
AcDbArc
 50
90.0
 51
180.0
  0
ARC
  5
219
102
{ACAD_REACTORS
330
266
330
267
102
}
330
71
100
AcDbEntity
  8
0
  6
Continuous
 62
     2
100
AcDbCircle
 10
86.24856857790317
 20
336.4628640007189
 30
0.0
 40
0.3528638246711466
100
AcDbArc
 50
270.0
 51
90.0
  0
ARC
  5
21A
102
{ACAD_REACTORS
330
26A
330
26B
102
}
330
71
100
AcDbEntity
  8
0
  6
Continuous
 62
     2
100
AcDbCircle
 10
92.99125932312896
 20
335.9519289089242
 30
0.0
 40
1.526904761905939
100
AcDbArc
 50
90.0
 51
270.0
  0
ARC
  5
21B
102
{ACAD_REACTORS
330
26E
330
26F
102
}
330
71
100
AcDbEntity
  8
0
  6
Continuous
 62
     2
100
AcDbCircle
 10
102.4182544158327
 20
332.479948070715
 30
0.0
 40
1.639695123940214
100
AcDbArc
 50
90.0
 51
164.9381082228967
  0
ARC
  5
21C
102
{ACAD_REACTORS
330
26E
330
26F
102
}
330
71
100
AcDbEntity
  8
0
  6
Continuous
 62
     2
100
AcDbCircle
 10
101.9991265723711
 20
332.5927384327499
 30
0.0
 40
1.205656168392974
100
AcDbArc
 50
164.9381082229052
 51
195.0618917770974
  0
ARC
  5
21D
102
{ACAD_REACTORS
330
26E
330
26F
102
}
330
71
100
AcDbEntity
  8
0
  6
Continuous
 62
     2
100
AcDbCircle
 10
102.5489988971485
 20
332.3876670034114
 30
0.0
 40
0.5115800601960091
100
AcDbArc
 50
208.5214732576873
 51
246.6277221118464
  0
ARC
  5
21E
102
{ACAD_REACTORS
330
26E
330
26F
102
}
330
71
100
AcDbEntity
  8
0
  6
Continuous
 62
     2
100
AcDbCircle
 10
102.5489988971485
 20
332.7978098620889
 30
0.0
 40
0.5115800601944096
100
AcDbArc
 50
109.3371432194838
 51
151.4785267424245
  0
ARC
  5
21F
102
{ACAD_REACTORS
330
26C
330
26D
102
}
330
71
100
AcDbEntity
  8
0
  6
Continuous
 62
     2
100
AcDbCircle
 10
81.48553868241785
 20
333.0447138204091
 30
0.0
 40
0.315716923076792
100
AcDbArc
 50
180.0
 51
269.8110329574541
  0
ARC
  5
220
102
{ACAD_REACTORS
330
26C
330
26D
102
}
330
71
100
AcDbEntity
  8
0
  6
Continuous
 62
     2
100
AcDbCircle
 10
81.49115481772787
 20
334.7475487679781
 30
0.0
 40
2.018561131933266
100
AcDbArc
 50
269.8110329575858
 51
90.18896704241416
  0
ARC
  5
221
102
{ACAD_REACTORS
330
26C
330
26D
102
}
330
71
100
AcDbEntity
  8
0
  6
Continuous
 62
     2
100
AcDbCircle
 10
81.48553868241785
 20
335.8448484270404
 30
0.0
 40
0.315716923076792
100
AcDbArc
 50
180.0
 51
244.6259913216482
  0
ARC
  5
222
102
{ACAD_REACTORS
330
26C
330
26D
102
}
330
71
100
AcDbEntity
  8
0
  6
Continuous
 62
     2
100
AcDbCircle
 10
81.48553868241785
 20
333.6265652271042
 30
0.0
 40
0.3157169230765328
100
AcDbArc
 50
115.3740086783519
 51
180.0
  0
ARC
  5
223
102
{ACAD_REACTORS
330
270
330
271
102
}
330
71
100
AcDbEntity
  8
0
  6
Continuous
 62
     2
100
AcDbCircle
 10
86.31555293657976
 20
332.479948070715
 30
0.0
 40
1.639695123940507
100
AcDbArc
 50
84.84185523036236
 51
164.9381082228884
  0
ARC
  5
224
102
{ACAD_REACTORS
330
270
330
271
102
}
330
71
100
AcDbEntity
  8
0
  6
Continuous
 62
     2
100
AcDbCircle
 10
85.89642509311696
 20
332.5927384327499
 30
0.0
 40
1.205656168390929
100
AcDbArc
 50
164.9381082228791
 51
195.0618917770948
  0
ARC
  5
225
102
{ACAD_REACTORS
330
270
330
271
102
}
330
71
100
AcDbEntity
  8
0
  6
Continuous
 62
     2
100
AcDbCircle
 10
86.31555293657976
 20
332.7055287947847
 30
0.0
 40
1.63969512393938
100
AcDbArc
 50
195.0618917770886
 51
275.1581447696396
  0
ARC
  5
226
102
{ACAD_REACTORS
330
270
330
271
102
}
330
71
100
AcDbEntity
  8
0
  6
Continuous
 62
     2
100
AcDbCircle
 10
86.02669684184386
 20
335.9054193780063
 30
0.0
 40
4.85259686349811
100
AcDbArc
 50
275.158144769625
 51
285.9799912583529
  0
ARC
  5
227
102
{ACAD_REACTORS
330
270
330
271
102
}
330
71
100
AcDbEntity
  8
0
  6
Continuous
 62
     2
100
AcDbCircle
 10
86.82365467597586
 20
332.5927384327499
 30
0.0
 40
0.9410597353332545
100
AcDbArc
 50
151.4785267422669
 51
208.5214732577057
  0
ARC
  5
228
102
{ACAD_REACTORS
330
270
330
271
102
}
330
71
100
AcDbEntity
  8
0
  6
Continuous
 62
     2
100
AcDbCircle
 10
86.44629741789555
 20
332.7978098620889
 30
0.0
 40
0.5115800601948517
100
AcDbArc
 50
113.3722778882004
 51
151.4785267423044
  0
ARC
  5
229
102
{ACAD_REACTORS
330
270
330
271
102
}
330
71
100
AcDbEntity
  8
0
  6
Continuous
 62
     2
100
AcDbCircle
 10
86.18456971693678
 20
331.1822720673417
 30
0.0
 40
2.227384008973453
100
AcDbArc
 50
58.06909105004033
 51
71.55192388186698
  0
ARC
  5
22A
102
{ACAD_REACTORS
330
268
330
269
102
}
330
71
100
AcDbEntity
  8
0
  6
Continuous
 62
     2
100
AcDbCircle
 10
89.24658385250066
 20
332.7494696108704
 30
0.0
 40
0.5179085730132998
100
AcDbArc
 50
38.12041979714704
 51
141.8795802028588
  0
ARC
  5
22B
102
{ACAD_REACTORS
330
268
330
269
102
}
330
71
100
AcDbEntity
  8
0
  6
Continuous
 62
     2
100
AcDbCircle
 10
89.44632388884676
 20
332.5927384327499
 30
0.0
 40
0.7717997786794457
100
AcDbArc
 50
141.879580202838
 51
218.120419797172
  0
ARC
  5
22C
102
{ACAD_REACTORS
330
268
330
269
102
}
330
71
100
AcDbEntity
  8
0
  6
Continuous
 62
     2
100
AcDbCircle
 10
89.24658385250066
 20
332.4360072546299
 30
0.0
 40
0.5179085730137529
100
AcDbArc
 50
218.1204197971956
 51
321.8795802027985
  0
ARC
  5
22D
102
{ACAD_REACTORS
330
268
330
269
102
}
330
71
100
AcDbEntity
  8
0
  6
Continuous
 62
     2
100
AcDbCircle
 10
89.04684381615425
 20
332.5927384327499
 30
0.0
 40
0.7717997786797298
100
AcDbArc
 50
321.8795802028384
 51
38.12041979715163
  0
CIRCLE
  5
22E
330
71
100
AcDbEntity
  8
1
  6
Continuous
 62
     2
100
AcDbCircle
 10
86.39185070375686
 20
344.8973336708282
 30
0.0
 40
2.5
  0
CIRCLE
  5
22F
330
71
100
AcDbEntity
  8
1
  6
Continuous
 62
     2
100
AcDbCircle
 10
86.39185070375686
 20
344.8973336708282
 30
0.0
 40
1.249999999999915
  0
CIRCLE
  5
230
102
{ACAD_REACTORS
330
26C
330
26D
102
}
330
71
100
AcDbEntity
  8
0
  6
Continuous
 62
     2
100
AcDbCircle
 10
80.93568096965717
 20
334.7357068270726
 30
0.0
 40
0.4709789327785074
  0
MTEXT
  5
231
330
71
100
AcDbEntity
  8
1
 62
     3
100
AcDbMText
 10
-83.79493186998394
 20
510.5636418261271
 30
0.0
 40
1.8
 41
0.0
 71
     7
 72
     1
  3
Weitergabe sowie Vervielf\U+00e4ltigung dieses Dokuments, Verwertung und \PMitteilung seines Inhalts sind verboten, soweit nicht ausdr\U+00fccklich gestattet. \PZuwiderhandlungen verpflichten zu Schadenersatz. Alle Rechte f\U+00fcr den Fall\Pder Pat
  1
ent-, Gebrauchsmuster- oder Designeintragung vorbehalten.
  7
CONVERTER_11
 73
     1
 44
0.99639855942377
  0
MTEXT
  5
232
330
71
100
AcDbEntity
  8
1
 62
     3
100
AcDbMText
 10
99.05817796880416
 20
510.5636418261271
 30
0.0
 40
1.8
 41
0.0
 71
     7
 72
     1
  3
Transfer or duplication of this document as well as the utilisation or\Pcommunication of its content are not permitted unless express consent\Pis granted. Violations give rise to claims for damages. All rights reserved\Pin case of patent, utility mo
  1
del or design patent registrations.
  7
CONVERTER_11
 73
     1
 44
0.99639855942377
  0
TEXT
  5
233
330
71
100
AcDbEntity
  8
1
 62
     2
100
AcDbText
 10
92.85519581719407
 20
325.0133164558367
 30
0.0
 40
1.8
  1
of
 41
0.9
  7
CONVERTER_11
100
AcDbText
  0
TEXT
  5
234
330
71
100
AcDbEntity
  8
1
 62
     2
100
AcDbText
 10
74.65519581719425
 20
325.0133164558366
 30
0.0
 40
1.8
  1
page
 41
0.9
  7
CONVERTER_11
100
AcDbText
  0
TEXT
  5
235
330
71
100
AcDbEntity
  8
1
 62
     2
100
AcDbText
 10
83.30146078753626
 20
324.9730850170263
 30
0.0
 40
1.8
  1
1
 41
0.9
  7
CONVERTER_11
100
AcDbText
  0
TEXT
  5
236
330
71
100
AcDbEntity
  8
1
 62
     2
100
AcDbText
 10
98.09050462700776
 20
325.0223336708282
 30
0.0
 40
1.8
  1
1
 41
0.9
  7
CONVERTER_11
100
AcDbText
  0
MTEXT
  5
238
330
71
100
AcDbEntity
  8
1
 62
     7
100
AcDbMText
 10
156.6275980805698
 20
327.0223336708285
 30
0.0
 40
3.0
 41
0.0
 71
     5
 72
     1
  1
D-ST 2,5-TWIN
  7
CONVERTER_12
 73
     1
 44
1.20048019207683
  0
MTEXT
  5
239
330
71
100
AcDbEntity
  8
1
 62
     2
100
AcDbMText
 10
111.0551958171942
 20
331.2723336708283
 30
0.0
 40
1.8
 41
0.0
 71
     1
 72
     1
  1
description
  7
CONVERTER_11
 73
     1
 44
1.20048019207683
  0
MTEXT
  5
23A
330
71
100
AcDbEntity
  8
1
 62
     3
100
AcDbMText
 10
99.85519581719416
 20
344.8973336708283
 30
0.0
 40
2.5
 41
0.0
 71
     5
 72
     1
  1
DIN A4
  7
CONVERTER_11
 73
     1
 44
1.20048019207683
  0
MTEXT
  5
23B
330
71
100
AcDbEntity
  8
1
 62
     7
100
AcDbMText
 10
-86.29999965605481
 20
346.2723336708283
 30
0.0
 40
3.5
 41
0.0
 71
     5
 72
     1
  1
D
  7
CONVERTER_11
 73
     1
 44
1.20048019207683
  0
MTEXT
  5
23C
330
71
100
AcDbEntity
  8
1
 62
     7
100
AcDbMText
 10
-86.29999965605481
 20
398.7723336708283
 30
0.0
 40
3.5
 41
0.0
 71
     5
 72
     1
  1
C
  7
CONVERTER_11
 73
     1
 44
1.20048019207683
  0
MTEXT
  5
23D
330
71
100
AcDbEntity
  8
1
 62
     7
100
AcDbMText
 10
-86.29999965605481
 20
448.7723336708283
 30
0.0
 40
3.5
 41
0.0
 71
     5
 72
     1
  1
B
  7
CONVERTER_11
 73
     1
 44
1.20048019207683
  0
MTEXT
  5
23E
330
71
100
AcDbEntity
  8
1
 62
     7
100
AcDbMText
 10
-86.29999965605481
 20
501.2723336708283
 30
0.0
 40
3.5
 41
0.0
 71
     5
 72
     1
  1
A
  7
CONVERTER_11
 73
     1
 44
1.20048019207683
  0
MTEXT
  5
23F
330
71
100
AcDbEntity
  8
1
 62
     7
100
AcDbMText
 10
183.9500003439435
 20
321.2723336708282
 30
0.0
 40
3.5
 41
0.0
 71
     5
 72
     1
  1
6
  7
CONVERTER_11
 73
     1
 44
1.20048019207683
  0
MTEXT
  5
240
330
71
100
AcDbEntity
  8
1
 62
     7
100
AcDbMText
 10
134.7000003439443
 20
321.2723336708282
 30
0.0
 40
3.5
 41
0.0
 71
     5
 72
     1
  1
5
  7
CONVERTER_11
 73
     1
 44
1.20048019207683
  0
MTEXT
  5
241
330
71
100
AcDbEntity
  8
1
 62
     7
100
AcDbMText
 10
84.70000034394417
 20
321.2723336708282
 30
0.0
 40
3.5
 41
0.0
 71
     5
 72
     1
  1
4
  7
CONVERTER_11
 73
     1
 44
1.20048019207683
  0
MTEXT
  5
242
330
71
100
AcDbEntity
  8
1
 62
     7
100
AcDbMText
 10
34.70000034394428
 20
321.2723336708282
 30
0.0
 40
3.5
 41
0.0
 71
     5
 72
     1
  1
3
  7
CONVERTER_11
 73
     1
 44
1.20048019207683
  0
MTEXT
  5
243
330
71
100
AcDbEntity
  8
1
 62
     7
100
AcDbMText
 10
-15.29999965605572
 20
321.2723336708282
 30
0.0
 40
3.5
 41
0.0
 71
     5
 72
     1
  1
2
  7
CONVERTER_11
 73
     1
 44
1.20048019207683
  0
MTEXT
  5
244
330
71
100
AcDbEntity
  8
1
 62
     7
100
AcDbMText
 10
-64.54999965605532
 20
321.2723336708282
 30
0.0
 40
3.5
 41
0.0
 71
     5
 72
     1
  1
1
  7
CONVERTER_11
 73
     1
 44
1.20048019207683
  0
MTEXT
  5
245
330
71
100
AcDbEntity
  8
1
 62
     7
100
AcDbMText
 10
205.7000003439433
 20
346.2723336708283
 30
0.0
 40
3.5
 41
0.0
 71
     5
 72
     1
  1
D
  7
CONVERTER_11
 73
     1
 44
1.20048019207683
  0
MTEXT
  5
246
330
71
100
AcDbEntity
  8
1
 62
     7
100
AcDbMText
 10
205.7000003439433
 20
448.7723336708302
 30
0.0
 40
3.5
 41
0.0
 71
     5
 72
     1
  1
B
  7
CONVERTER_11
 73
     1
 44
1.20048019207683
  0
MTEXT
  5
247
330
71
100
AcDbEntity
  8
1
 62
     7
100
AcDbMText
 10
205.7000003439433
 20
501.2723336708283
 30
0.0
 40
3.5
 41
0.0
 71
     5
 72
     1
  1
A
  7
CONVERTER_11
 73
     1
 44
1.20048019207683
  0
MTEXT
  5
248
330
71
100
AcDbEntity
  8
1
 62
     7
100
AcDbMText
 10
205.7000003439433
 20
398.7723336708302
 30
0.0
 40
3.5
 41
0.0
 71
     5
 72
     1
  1
C
  7
CONVERTER_11
 73
     1
 44
1.20048019207683
  0
MTEXT
  5
249
330
71
100
AcDbEntity
  8
1
 62
     2
100
AcDbMText
 10
39.21718109214675
 20
336.5223336708282
 30
0.0
 40
2.0
 41
0.0
 71
     5
 72
     1
  1
General Information\P- Simplified representation\P- Document excluded from change process\P- Linear dimensions [mm]
  7
CONVERTER_11
 73
     1
 44
1.20048019207683
  0
TEXT
  5
24A
330
71
100
AcDbEntity
  8
1
 62
     7
100
AcDbText
 10
111.555195817194
 20
333.5723336708282
 30
0.0
 40
2.5
  1
3030488
 41
0.81
  7
CONVERTER_12
100
AcDbText
  0
MTEXT
  5
24B
330
71
100
AcDbEntity
  8
1
 62
     2
100
AcDbMText
 10
111.1551958171943
 20
339.7723336708283
 30
0.0
 40
1.8
 41
0.0
 71
     1
 72
     1
  1
ident.-No.
  7
CONVERTER_11
 73
     1
 44
1.20048019207683
  0
MTEXT
  5
24C
330
71
100
AcDbEntity
  8
1
 62
     2
100
AcDbMText
 10
195.381592062267
 20
348.2723336708283
 30
0.0
 40
1.8
 41
0.0
 71
     1
 72
     1
  1
scale
  7
CONVERTER_11
 73
     1
 44
1.20048019207683
  0
MTEXT
  5
24E
330
71
100
AcDbEntity
  8
1
 62
     3
100
AcDbMText
 10
198.7407962031066
 20
342.0723336708284
 30
0.0
 40
2.5
 41
0.0
 71
     8
 72
     1
  1
1:1
  7
CONVERTER_13
 73
     1
 44
1.32052821128451
  0
TEXT
  5
24F
330
71
100
AcDbEntity
  8
1
 62
     7
100
AcDbText
 10
111.1551958171943
 20
342.0723336708282
 30
0.0
 40
2.5
  1
00317917
 41
0.81
  7
CONVERTER_12
100
AcDbText
  0
MTEXT
  5
251
330
71
100
AcDbEntity
  8
1
 62
     2
100
AcDbMText
 10
111.1551958171943
 20
348.2723336708283
 30
0.0
 40
1.8
 41
0.0
 71
     1
 72
     1
  1
document-No. / RI
  7
CONVERTER_14
 73
     1
 44
1.32052821128451
  0
TEXT
  5
252
330
71
100
AcDbEntity
  8
1
 62
     3
100
AcDbText
 10
138.9551958171943
 20
333.5723336708282
 30
0.0
 40
2.5
  1
TECDOC 2D_Productdrawing
 41
0.81
  7
CONVERTER_12
100
AcDbText
  0
MTEXT
  5
253
330
71
100
AcDbEntity
  8
1
 62
     2
100
AcDbMText
 10
138.9551958171943
 20
339.7723336708282
 30
0.0
 40
1.8
 41
0.0
 71
     1
 72
     1
  1
document-type
  7
CONVERTER_11
 73
     1
 44
1.20048019207683
  0
MTEXT
  5
254
330
71
100
AcDbEntity
  8
1
 62
     2
100
AcDbMText
 10
168.7815920622672
 20
348.2723336708282
 30
0.0
 40
1.8
 41
0.0
 71
     1
 72
     1
  1
date
  7
CONVERTER_11
 73
     1
 44
1.32052821128451
  0
TEXT
  5
255
330
71
100
AcDbEntity
  8
1
 62
     3
100
AcDbText
 10
168.7815920622672
 20
342.0723336708282
 30
0.0
 40
2.5
  1
19.03.2018
 41
0.81
  7
CONVERTER_12
100
AcDbText
  0
TEXT
  5
256
330
71
100
AcDbEntity
  8
1
 62
     7
100
AcDbText
 10
131.1851080362501
 20
342.0723336708282
 30
0.0
 40
2.5
  1
01
 41
0.81
  7
CONVERTER_12
100
AcDbText
  0
TEXT
  5
257
330
71
100
AcDbEntity
  8
1
 62
     7
100
AcDbText
 10
129.0287435392081
 20
342.0723336708282
 30
0.0
 40
2.5
  1
/
 41
0.9
  7
CONVERTER_11
100
AcDbText
  0
HATCH
  5
258
330
71
100
AcDbEntity
  8
1
  6
Continuous
 62
     2
100
AcDbHatch
 10
0.0
 20
0.0
 30
0.0
210
0.0
220
0.0
230
1.0
  2
_USER
 70
     0
 71
     1
 91
        1
 92
        1
 93
       12
 72
     1
 10
91.32269653015535
 20
334.4250241470189
 11
90.12990382798895
 21
334.4250241470189
 72
     1
 10
90.12990382798895
 20
334.4250241470189
 11
90.12990382798895
 21
335.5592962558627
 72
     1
 10
90.12990382798895
 20
335.5592962558627
 11
89.08024625008147
 21
335.5592962558627
 72
     1
 10
89.08024625008147
 20
335.5592962558627
 11
89.08024625008147
 21
334.4250241470189
 72
     1
 10
89.08024625008147
 20
334.4250241470189
 11
87.88745354791487
 21
334.4250241470189
 72
     1
 10
87.88745354791487
 20
334.4250241470189
 11
87.88745354791487
 21
337.4788336708301
 72
     1
 10
87.88745354791487
 20
337.4788336708301
 11
89.08024625008147
 21
337.4788336708301
 72
     1
 10
89.08024625008147
 20
337.4788336708301
 11
89.08024625008147
 21
336.4100003374955
 72
     1
 10
89.08024625008147
 20
336.4100003374955
 11
90.12990382798895
 21
336.4100003374955
 72
     1
 10
90.12990382798895
 20
336.4100003374955
 11
90.12990382798895
 21
337.4788336708301
 72
     1
 10
90.12990382798895
 20
337.4788336708301
 11
91.32269653015535
 21
337.4788336708301
 72
     1
 10
91.32269653015535
 20
337.4788336708301
 11
91.32269653015535
 21
334.4250241470189
 97
       12
330
1C5
330
1C6
330
1B0
330
1AF
330
1AE
330
1C2
330
1AD
330
1C3
330
1C4
330
1AC
330
1AB
330
1AA
 75
     1
 76
     0
 52
45.0
 41
0.1
 77
     0
 78
     1
 53
45.0
 43
0.0
 44
0.0
 45
-0.0707106781186548
 46
0.0707106781186548
 79
     0
 98
        1
 10
0.0
 20
0.0
  0
HATCH
  5
259
330
71
100
AcDbEntity
  8
1
  6
Continuous
 62
     2
100
AcDbHatch
 10
0.0
 20
0.0
 30
0.0
210
0.0
220
0.0
230
1.0
  2
_USER
 70
     0
 71
     1
 91
        1
 92
        1
 93
       12
 72
     1
 10
91.32269653015535
 20
334.4250241470189
 11
90.12990382798895
 21
334.4250241470189
 72
     1
 10
90.12990382798895
 20
334.4250241470189
 11
90.12990382798895
 21
335.5592962558627
 72
     1
 10
90.12990382798895
 20
335.5592962558627
 11
89.08024625008147
 21
335.5592962558627
 72
     1
 10
89.08024625008147
 20
335.5592962558627
 11
89.08024625008147
 21
334.4250241470189
 72
     1
 10
89.08024625008147
 20
334.4250241470189
 11
87.88745354791487
 21
334.4250241470189
 72
     1
 10
87.88745354791487
 20
334.4250241470189
 11
87.88745354791487
 21
337.4788336708301
 72
     1
 10
87.88745354791487
 20
337.4788336708301
 11
89.08024625008147
 21
337.4788336708301
 72
     1
 10
89.08024625008147
 20
337.4788336708301
 11
89.08024625008147
 21
336.4100003374955
 72
     1
 10
89.08024625008147
 20
336.4100003374955
 11
90.12990382798895
 21
336.4100003374955
 72
     1
 10
90.12990382798895
 20
336.4100003374955
 11
90.12990382798895
 21
337.4788336708301
 72
     1
 10
90.12990382798895
 20
337.4788336708301
 11
91.32269653015535
 21
337.4788336708301
 72
     1
 10
91.32269653015535
 20
337.4788336708301
 11
91.32269653015535
 21
334.4250241470189
 97
       12
330
1C5
330
1C6
330
1B0
330
1AF
330
1AE
330
1C2
330
1AD
330
1C3
330
1C4
330
1AC
330
1AB
330
1AA
 75
     1
 76
     0
 52
45.0
 41
0.1
 77
     0
 78
     1
 53
45.0
 43
0.0
 44
0.0
 45
-0.0707106781186548
 46
0.0707106781186548
 79
     0
 98
        1
 10
0.0
 20
0.0
  0
HATCH
  5
25A
330
71
100
AcDbEntity
  8
1
  6
Continuous
 62
     2
100
AcDbHatch
 10
0.0
 20
0.0
 30
0.0
210
0.0
220
0.0
230
1.0
  2
_USER
 70
     0
 71
     1
 91
        1
 92
        1
 93
       10
 72
     1
 10
93.56499587934366
 20
332.8108676844506
 11
92.32449146909076
 21
334.1196431946557
 72
     1
 10
92.32449146909076
 20
334.1196431946557
 11
91.13169876692317
 21
334.1196431946557
 72
     1
 10
91.13169876692317
 20
334.1196431946557
 11
91.13169876692317
 21
331.0658336708446
 72
     1
 10
91.13169876692317
 20
331.0658336708446
 11
92.32449146909076
 21
331.0658336708446
 72
     1
 10
92.32449146909076
 20
331.0658336708446
 11
92.32449146909076
 21
332.3746091810492
 72
     1
 10
92.32449146909076
 20
332.3746091810492
 11
93.56499587934366
 21
331.0658336708446
 72
     1
 10
93.56499587934366
 20
331.0658336708446
 11
94.75778858151006
 21
331.0658336708446
 72
     1
 10
94.75778858151006
 20
331.0658336708446
 11
94.75778858151006
 21
334.1196431946557
 72
     1
 10
94.75778858151006
 20
334.1196431946557
 11
93.56499587934366
 21
334.1196431946557
 72
     1
 10
93.56499587934366
 20
334.1196431946557
 11
93.56499587934366
 21
332.8108676844506
 97
       10
330
1D3
330
1A3
330
1A2
330
1A5
330
1CE
330
1CF
330
1A4
330
1D0
330
1D1
330
1D2
 75
     1
 76
     0
 52
45.0
 41
0.1
 77
     0
 78
     1
 53
45.0
 43
0.0
 44
0.0
 45
-0.0707106781186548
 46
0.0707106781186548
 79
     0
 98
        1
 10
0.0
 20
0.0
  0
HATCH
  5
25B
330
71
100
AcDbEntity
  8
1
  6
Continuous
 62
     2
100
AcDbHatch
 10
0.0
 20
0.0
 30
0.0
210
0.0
220
0.0
230
1.0
  2
_USER
 70
     0
 71
     1
 91
        1
 92
        1
 93
       10
 72
     1
 10
93.56499587934366
 20
332.8108676844506
 11
92.32449146909076
 21
334.1196431946557
 72
     1
 10
92.32449146909076
 20
334.1196431946557
 11
91.13169876692317
 21
334.1196431946557
 72
     1
 10
91.13169876692317
 20
334.1196431946557
 11
91.13169876692317
 21
331.0658336708446
 72
     1
 10
91.13169876692317
 20
331.0658336708446
 11
92.32449146909076
 21
331.0658336708446
 72
     1
 10
92.32449146909076
 20
331.0658336708446
 11
92.32449146909076
 21
332.3746091810492
 72
     1
 10
92.32449146909076
 20
332.3746091810492
 11
93.56499587934366
 21
331.0658336708446
 72
     1
 10
93.56499587934366
 20
331.0658336708446
 11
94.75778858151006
 21
331.0658336708446
 72
     1
 10
94.75778858151006
 20
331.0658336708446
 11
94.75778858151006
 21
334.1196431946557
 72
     1
 10
94.75778858151006
 20
334.1196431946557
 11
93.56499587934366
 21
334.1196431946557
 72
     1
 10
93.56499587934366
 20
334.1196431946557
 11
93.56499587934366
 21
332.8108676844506
 97
       10
330
1D3
330
1A3
330
1A2
330
1A5
330
1CE
330
1CF
330
1A4
330
1D0
330
1D1
330
1D2
 75
     1
 76
     0
 52
45.0
 41
0.1
 77
     0
 78
     1
 53
45.0
 43
0.0
 44
0.0
 45
-0.0707106781186548
 46
0.0707106781186548
 79
     0
 98
        1
 10
0.0
 20
0.0
  0
HATCH
  5
25C
330
71
100
AcDbEntity
  8
1
  6
Continuous
 62
     2
100
AcDbHatch
 10
0.0
 20
0.0
 30
0.0
210
0.0
220
0.0
230
1.0
  2
_USER
 70
     0
 71
     1
 91
        1
 92
        1
 93
       10
 72
     1
 10
98.81343469976338
 20
336.1700581606249
 11
97.57293028950937
 21
337.4788336708301
 72
     1
 10
97.57293028950937
 20
337.4788336708301
 11
96.38013758734286
 21
337.4788336708301
 72
     1
 10
96.38013758734286
 20
337.4788336708301
 11
96.38013758734286
 21
334.4250241470189
 72
     1
 10
96.38013758734286
 20
334.4250241470189
 11
97.57293028950937
 21
334.4250241470189
 72
     1
 10
97.57293028950937
 20
334.4250241470189
 11
97.57293028950937
 21
335.7337996572236
 72
     1
 10
97.57293028950937
 20
335.7337996572236
 11
98.81343469976338
 21
334.4250241470189
 72
     1
 10
98.81343469976338
 20
334.4250241470189
 11
100.00622740193
 21
334.4250241470189
 72
     1
 10
100.00622740193
 20
334.4250241470189
 11
100.00622740193
 21
337.4788336708301
 72
     1
 10
100.00622740193
 20
337.4788336708301
 11
98.81343469976338
 21
337.4788336708301
 72
     1
 10
98.81343469976338
 20
337.4788336708301
 11
98.81343469976338
 21
336.1700581606249
 97
       10
330
1D8
330
1A0
330
19F
330
1D9
330
19E
330
1D4
330
1D5
330
1D6
330
1D7
330
1A1
 75
     1
 76
     0
 52
45.0
 41
0.1
 77
     0
 78
     1
 53
45.0
 43
0.0
 44
0.0
 45
-0.0707106781186548
 46
0.0707106781186548
 79
     0
 98
        1
 10
0.0
 20
0.0
  0
HATCH
  5
25D
330
71
100
AcDbEntity
  8
1
  6
Continuous
 62
     2
100
AcDbHatch
 10
0.0
 20
0.0
 30
0.0
210
0.0
220
0.0
230
1.0
  2
_USER
 70
     0
 71
     1
 91
        1
 92
        1
 93
       10
 72
     1
 10
98.81343469976338
 20
336.1700581606249
 11
97.57293028950937
 21
337.4788336708301
 72
     1
 10
97.57293028950937
 20
337.4788336708301
 11
96.38013758734286
 21
337.4788336708301
 72
     1
 10
96.38013758734286
 20
337.4788336708301
 11
96.38013758734286
 21
334.4250241470189
 72
     1
 10
96.38013758734286
 20
334.4250241470189
 11
97.57293028950937
 21
334.4250241470189
 72
     1
 10
97.57293028950937
 20
334.4250241470189
 11
97.57293028950937
 21
335.7337996572236
 72
     1
 10
97.57293028950937
 20
335.7337996572236
 11
98.81343469976338
 21
334.4250241470189
 72
     1
 10
98.81343469976338
 20
334.4250241470189
 11
100.00622740193
 21
334.4250241470189
 72
     1
 10
100.00622740193
 20
334.4250241470189
 11
100.00622740193
 21
337.4788336708301
 72
     1
 10
100.00622740193
 20
337.4788336708301
 11
98.81343469976338
 21
337.4788336708301
 72
     1
 10
98.81343469976338
 20
337.4788336708301
 11
98.81343469976338
 21
336.1700581606249
 97
       10
330
1D8
330
1A0
330
19F
330
1D9
330
19E
330
1D4
330
1D5
330
1D6
330
1D7
330
1A1
 75
     1
 76
     0
 52
45.0
 41
0.1
 77
     0
 78
     1
 53
45.0
 43
0.0
 44
0.0
 45
-0.0707106781186548
 46
0.0707106781186548
 79
     0
 98
        1
 10
0.0
 20
0.0
  0
HATCH
  5
25E
330
71
100
AcDbEntity
  8
1
  6
Continuous
 62
     2
100
AcDbHatch
 10
0.0
 20
0.0
 30
0.0
210
0.0
220
0.0
230
1.0
  2
_USER
 70
     0
 71
     1
 91
        1
 92
        1
 93
        8
 72
     1
 10
97.71591448288387
 20
334.1196431946557
 11
94.90092370577025
 21
334.1196431946557
 72
     1
 10
94.90092370577025
 20
334.1196431946557
 11
94.90092370577025
 21
333.3343778885321
 72
     1
 10
94.90092370577025
 20
333.3343778885321
 11
95.71202274324486
 21
333.3343778885321
 72
     1
 10
95.71202274324486
 20
333.3343778885321
 11
95.71202274324486
 21
331.0658336708446
 72
     1
 10
95.71202274324486
 20
331.0658336708446
 11
96.90481544541137
 21
331.0658336708446
 72
     1
 10
96.90481544541137
 20
331.0658336708446
 11
96.90481544541137
 21
333.3343778885321
 72
     1
 10
96.90481544541137
 20
333.3343778885321
 11
97.71591448288387
 21
333.3343778885321
 72
     1
 10
97.71591448288387
 20
333.3343778885321
 11
97.71591448288387
 21
334.1196431946557
 97
        8
330
19A
330
1DA
330
199
330
1DB
330
1DC
330
19D
330
19C
330
19B
 75
     1
 76
     0
 52
45.0
 41
0.1
 77
     0
 78
     1
 53
45.0
 43
0.0
 44
0.0
 45
-0.0707106781186548
 46
0.0707106781186548
 79
     0
 98
        1
 10
0.0
 20
0.0
  0
HATCH
  5
25F
330
71
100
AcDbEntity
  8
1
  6
Continuous
 62
     2
100
AcDbHatch
 10
0.0
 20
0.0
 30
0.0
210
0.0
220
0.0
230
1.0
  2
_USER
 70
     0
 71
     1
 91
        1
 92
        1
 93
        8
 72
     1
 10
97.71591448288387
 20
334.1196431946557
 11
94.90092370577025
 21
334.1196431946557
 72
     1
 10
94.90092370577025
 20
334.1196431946557
 11
94.90092370577025
 21
333.3343778885321
 72
     1
 10
94.90092370577025
 20
333.3343778885321
 11
95.71202274324486
 21
333.3343778885321
 72
     1
 10
95.71202274324486
 20
333.3343778885321
 11
95.71202274324486
 21
331.0658336708446
 72
     1
 10
95.71202274324486
 20
331.0658336708446
 11
96.90481544541137
 21
331.0658336708446
 72
     1
 10
96.90481544541137
 20
331.0658336708446
 11
96.90481544541137
 21
333.3343778885321
 72
     1
 10
96.90481544541137
 20
333.3343778885321
 11
97.71591448288387
 21
333.3343778885321
 72
     1
 10
97.71591448288387
 20
333.3343778885321
 11
97.71591448288387
 21
334.1196431946557
 97
        8
330
19A
330
1DA
330
199
330
1DB
330
1DC
330
19D
330
19C
330
19B
 75
     1
 76
     0
 52
45.0
 41
0.1
 77
     0
 78
     1
 53
45.0
 43
0.0
 44
0.0
 45
-0.0707106781186548
 46
0.0707106781186548
 79
     0
 98
        1
 10
0.0
 20
0.0
  0
HATCH
  5
260
330
71
100
AcDbEntity
  8
1
  6
Continuous
 62
     2
100
AcDbHatch
 10
0.0
 20
0.0
 30
0.0
210
0.0
220
0.0
230
1.0
  2
_USER
 70
     0
 71
     1
 91
        2
 92
        1
 93
        8
 72
     1
 10
99.85434193883086
 20
331.0658336708446
 11
99.64286188535507
 21
331.6067942150625
 72
     1
 10
99.64286188535507
 20
331.6067942150625
 11
98.51042030868126
 21
331.6067942150625
 72
     1
 10
98.51042030868126
 20
331.6067942150625
 11
98.29894025520545
 21
331.0658336708446
 72
     1
 10
98.29894025520545
 20
331.0658336708446
 11
97.05843584495247
 21
331.0658336708446
 72
     1
 10
97.05843584495247
 20
331.0658336708446
 11
98.45638889189178
 21
334.1196431946557
 72
     1
 10
98.45638889189178
 20
334.1196431946557
 11
99.69689330214447
 21
334.1196431946557
 72
     1
 10
99.69689330214447
 20
334.1196431946557
 11
101.0948463490848
 21
331.0658336708446
 72
     1
 10
101.0948463490848
 20
331.0658336708446
 11
99.85434193883086
 21
331.0658336708446
 97
        8
330
1DE
330
1DF
330
196
330
1E0
330
195
330
198
330
1DD
330
197
 92
       16
 93
        3
 72
     1
 10
98.77647585982626
 20
332.2873574803691
 11
99.07664109701867
 21
333.0551724463558
 72
     1
 10
99.07664109701867
 20
333.0551724463558
 11
99.37680633420877
 21
332.2873574803691
 72
     1
 10
99.37680633420877
 20
332.2873574803691
 11
98.77647585982626
 21
332.2873574803691
 97
        3
330
194
330
1E2
330
1E1
 75
     1
 76
     0
 52
45.0
 41
0.1
 77
     0
 78
     1
 53
45.0
 43
0.0
 44
0.0
 45
-0.0707106781186548
 46
0.0707106781186548
 79
     0
 98
        1
 10
0.0
 20
0.0
  0
HATCH
  5
261
330
71
100
AcDbEntity
  8
1
  6
Continuous
 62
     2
100
AcDbHatch
 10
0.0
 20
0.0
 30
0.0
210
0.0
220
0.0
230
1.0
  2
_USER
 70
     0
 71
     1
 91
        2
 92
        1
 93
        8
 72
     1
 10
99.85434193883086
 20
331.0658336708446
 11
99.64286188535507
 21
331.6067942150625
 72
     1
 10
99.64286188535507
 20
331.6067942150625
 11
98.51042030868126
 21
331.6067942150625
 72
     1
 10
98.51042030868126
 20
331.6067942150625
 11
98.29894025520545
 21
331.0658336708446
 72
     1
 10
98.29894025520545
 20
331.0658336708446
 11
97.05843584495247
 21
331.0658336708446
 72
     1
 10
97.05843584495247
 20
331.0658336708446
 11
98.45638889189178
 21
334.1196431946557
 72
     1
 10
98.45638889189178
 20
334.1196431946557
 11
99.69689330214447
 21
334.1196431946557
 72
     1
 10
99.69689330214447
 20
334.1196431946557
 11
101.0948463490848
 21
331.0658336708446
 72
     1
 10
101.0948463490848
 20
331.0658336708446
 11
99.85434193883086
 21
331.0658336708446
 97
        8
330
1DE
330
1DF
330
196
330
1E0
330
195
330
198
330
1DD
330
197
 92
       16
 93
        3
 72
     1
 10
98.77647585982626
 20
332.2873574803691
 11
99.07664109701867
 21
333.0551724463558
 72
     1
 10
99.07664109701867
 20
333.0551724463558
 11
99.37680633420877
 21
332.2873574803691
 72
     1
 10
99.37680633420877
 20
332.2873574803691
 11
98.77647585982626
 21
332.2873574803691
 97
        3
330
194
330
1E2
330
1E1
 75
     1
 76
     0
 52
45.0
 41
0.1
 77
     0
 78
     1
 53
45.0
 43
0.0
 44
0.0
 45
-0.0707106781186548
 46
0.0707106781186548
 79
     0
 98
        1
 10
0.0
 20
0.0
  0
HATCH
  5
262
330
71
100
AcDbEntity
  8
1
  6
Continuous
 62
     2
100
AcDbHatch
 10
0.0
 20
0.0
 30
0.0
210
0.0
220
0.0
230
1.0
  2
_USER
 70
     0
 71
     1
 91
        1
 92
        1
 93
        4
 72
     1
 10
101.4852903526168
 20
334.4250241470189
 11
100.2447859423639
 21
334.4250241470189
 72
     1
 10
100.2447859423639
 20
334.4250241470189
 11
100.2447859423639
 21
337.4788336708301
 72
     1
 10
100.2447859423639
 20
337.4788336708301
 11
101.4852903526168
 21
337.4788336708301
 72
     1
 10
101.4852903526168
 20
337.4788336708301
 11
101.4852903526168
 21
334.4250241470189
 97
        4
330
191
330
193
330
1E3
330
192
 75
     1
 76
     0
 52
45.0
 41
0.1
 77
     0
 78
     1
 53
45.0
 43
0.0
 44
0.0
 45
-0.0707106781186548
 46
0.0707106781186548
 79
     0
 98
        1
 10
0.0
 20
0.0
  0
HATCH
  5
263
330
71
100
AcDbEntity
  8
1
  6
Continuous
 62
     2
100
AcDbHatch
 10
0.0
 20
0.0
 30
0.0
210
0.0
220
0.0
230
1.0
  2
_USER
 70
     0
 71
     1
 91
        1
 92
        1
 93
        4
 72
     1
 10
101.4852903526168
 20
334.4250241470189
 11
100.2447859423639
 21
334.4250241470189
 72
     1
 10
100.2447859423639
 20
334.4250241470189
 11
100.2447859423639
 21
337.4788336708301
 72
     1
 10
100.2447859423639
 20
337.4788336708301
 11
101.4852903526168
 21
337.4788336708301
 72
     1
 10
101.4852903526168
 20
337.4788336708301
 11
101.4852903526168
 21
334.4250241470189
 97
        4
330
191
330
193
330
1E3
330
192
 75
     1
 76
     0
 52
45.0
 41
0.1
 77
     0
 78
     1
 53
45.0
 43
0.0
 44
0.0
 45
-0.0707106781186548
 46
0.0707106781186548
 79
     0
 98
        1
 10
0.0
 20
0.0
  0
HATCH
  5
264
330
71
100
AcDbEntity
  8
1
  6
Continuous
 62
     2
100
AcDbHatch
 10
0.0
 20
0.0
 30
0.0
210
0.0
220
0.0
230
1.0
  2
_USER
 70
     0
 71
     1
 91
        1
 92
        1
 93
       12
 72
     1
 10
105.7077765182876
 20
337.4788336708301
 11
104.4052468875211
 21
336.0058831407939
 72
     1
 10
104.4052468875211
 20
336.0058831407939
 11
105.8031999344614
 21
334.4250241470189
 72
     1
 10
105.8031999344614
 20
334.4250241470189
 11
104.4004757167131
 21
334.4250241470189
 72
     1
 10
104.4004757167131
 20
334.4250241470189
 11
103.7038847786476
 21
335.2127559323126
 72
     1
 10
103.7038847786476
 20
335.2127559323126
 11
103.0072938405819
 21
334.4250241470189
 72
     1
 10
103.0072938405819
 20
334.4250241470189
 11
101.6045696228337
 21
334.4250241470189
 72
     1
 10
101.6045696228337
 20
334.4250241470189
 11
103.002522669774
 21
336.0058831407939
 72
     1
 10
103.002522669774
 20
336.0058831407939
 11
101.6999930390065
 21
337.4788336708301
 72
     1
 10
101.6999930390065
 20
337.4788336708301
 11
103.1027172567558
 21
337.4788336708301
 72
     1
 10
103.1027172567558
 20
337.4788336708301
 11
103.7038847786476
 21
336.7990103492746
 72
     1
 10
103.7038847786476
 20
336.7990103492746
 11
104.3050523005404
 21
337.4788336708301
 72
     1
 10
104.3050523005404
 20
337.4788336708301
 11
105.7077765182876
 21
337.4788336708301
 97
       12
330
18C
330
18B
330
18A
330
1E7
330
1E8
330
1E4
330
1E5
330
190
330
18F
330
18E
330
18D
330
1E6
 75
     1
 76
     0
 52
45.0
 41
0.1
 77
     0
 78
     1
 53
45.0
 43
0.0
 44
0.0
 45
-0.0707106781186548
 46
0.0707106781186548
 79
     0
 98
        1
 10
0.0
 20
0.0
  0
HATCH
  5
265
330
71
100
AcDbEntity
  8
1
  6
Continuous
 62
     2
100
AcDbHatch
 10
0.0
 20
0.0
 30
0.0
210
0.0
220
0.0
230
1.0
  2
_USER
 70
     0
 71
     1
 91
        1
 92
        1
 93
       12
 72
     1
 10
105.7077765182876
 20
337.4788336708301
 11
104.4052468875211
 21
336.0058831407939
 72
     1
 10
104.4052468875211
 20
336.0058831407939
 11
105.8031999344614
 21
334.4250241470189
 72
     1
 10
105.8031999344614
 20
334.4250241470189
 11
104.4004757167131
 21
334.4250241470189
 72
     1
 10
104.4004757167131
 20
334.4250241470189
 11
103.7038847786476
 21
335.2127559323126
 72
     1
 10
103.7038847786476
 20
335.2127559323126
 11
103.0072938405819
 21
334.4250241470189
 72
     1
 10
103.0072938405819
 20
334.4250241470189
 11
101.6045696228337
 21
334.4250241470189
 72
     1
 10
101.6045696228337
 20
334.4250241470189
 11
103.002522669774
 21
336.0058831407939
 72
     1
 10
103.002522669774
 20
336.0058831407939
 11
101.6999930390065
 21
337.4788336708301
 72
     1
 10
101.6999930390065
 20
337.4788336708301
 11
103.1027172567558
 21
337.4788336708301
 72
     1
 10
103.1027172567558
 20
337.4788336708301
 11
103.7038847786476
 21
336.7990103492746
 72
     1
 10
103.7038847786476
 20
336.7990103492746
 11
104.3050523005404
 21
337.4788336708301
 72
     1
 10
104.3050523005404
 20
337.4788336708301
 11
105.7077765182876
 21
337.4788336708301
 97
       12
330
18C
330
18B
330
18A
330
1E7
330
1E8
330
1E4
330
1E5
330
190
330
18F
330
18E
330
18D
330
1E6
 75
     1
 76
     0
 52
45.0
 41
0.1
 77
     0
 78
     1
 53
45.0
 43
0.0
 44
0.0
 45
-0.0707106781186548
 46
0.0707106781186548
 79
     0
 98
        1
 10
0.0
 20
0.0
  0
HATCH
  5
266
330
71
100
AcDbEntity
  8
1
  6
Continuous
 62
     2
100
AcDbHatch
 10
0.0
 20
0.0
 30
0.0
210
0.0
220
0.0
230
1.0
  2
_USER
 70
     0
 71
     1
 91
        2
 92
        1
 93
        6
 72
     1
 10
86.69004110414156
 20
335.3681023881627
 11
85.93127351636127
 21
335.3681023881627
 72
     1
 10
85.93127351636127
 20
335.3681023881627
 11
85.93127351636127
 21
334.4250241470189
 72
     1
 10
85.93127351636127
 20
334.4250241470189
 11
84.69076910610715
 21
334.4250241470189
 72
     1
 10
84.69076910610715
 20
334.4250241470189
 11
84.69076910610715
 21
337.4788336708301
 72
     1
 10
84.69076910610715
 20
337.4788336708301
 11
86.69004110414156
 21
337.4788336708301
 72
     2
 10
86.69004110414156
 20
336.4234680294964
 40
1.055365641333708
 50
270.0
 51
450.0
 73
     0
 97
        6
330
1B4
330
1B3
330
1C0
330
1BF
330
1B5
330
205
 92
       16
 93
        4
 72
     2
 10
86.24856857790317
 20
336.4628640007189
 40
0.3528638246711466
 50
270.0
 51
450.0
 73
     1
 72
     1
 10
86.24856857790317
 20
336.81572782539
 11
85.93127351636127
 21
336.81572782539
 72
     1
 10
85.93127351636127
 20
336.81572782539
 11
85.93127351636127
 21
336.1100001760478
 72
     1
 10
85.93127351636127
 20
336.1100001760478
 11
86.24856857790317
 21
336.1100001760478
 97
        4
330
219
330
1B1
330
1C1
330
1B2
 75
     1
 76
     0
 52
45.0
 41
0.1
 77
     0
 78
     1
 53
45.0
 43
0.0
 44
0.0
 45
-0.0707106781186548
 46
0.0707106781186548
 79
     0
 98
        1
 10
0.0
 20
0.0
  0
HATCH
  5
267
330
71
100
AcDbEntity
  8
1
  6
Continuous
 62
     2
100
AcDbHatch
 10
0.0
 20
0.0
 30
0.0
210
0.0
220
0.0
230
1.0
  2
_USER
 70
     0
 71
     1
 91
        2
 92
        1
 93
        6
 72
     1
 10
86.69004110414156
 20
335.3681023881627
 11
85.93127351636127
 21
335.3681023881627
 72
     1
 10
85.93127351636127
 20
335.3681023881627
 11
85.93127351636127
 21
334.4250241470189
 72
     1
 10
85.93127351636127
 20
334.4250241470189
 11
84.69076910610715
 21
334.4250241470189
 72
     1
 10
84.69076910610715
 20
334.4250241470189
 11
84.69076910610715
 21
337.4788336708301
 72
     1
 10
84.69076910610715
 20
337.4788336708301
 11
86.69004110414156
 21
337.4788336708301
 72
     2
 10
86.69004110414156
 20
336.4234680294964
 40
1.055365641333708
 50
270.0
 51
450.0
 73
     0
 97
        6
330
1B4
330
1B3
330
1C0
330
1BF
330
1B5
330
205
 92
       16
 93
        4
 72
     2
 10
86.24856857790317
 20
336.4628640007189
 40
0.3528638246711466
 50
270.0
 51
450.0
 73
     1
 72
     1
 10
86.24856857790317
 20
336.81572782539
 11
85.93127351636127
 21
336.81572782539
 72
     1
 10
85.93127351636127
 20
336.81572782539
 11
85.93127351636127
 21
336.1100001760478
 72
     1
 10
85.93127351636127
 20
336.1100001760478
 11
86.24856857790317
 21
336.1100001760478
 97
        4
330
219
330
1B1
330
1C1
330
1B2
 75
     1
 76
     0
 52
45.0
 41
0.1
 77
     0
 78
     1
 53
45.0
 43
0.0
 44
0.0
 45
-0.0707106781186548
 46
0.0707106781186548
 79
     0
 98
        1
 10
0.0
 20
0.0
  0
HATCH
  5
268
330
71
100
AcDbEntity
  8
1
  6
Continuous
 62
     2
100
AcDbHatch
 10
0.0
 20
0.0
 30
0.0
210
0.0
220
0.0
230
1.0
  2
_USER
 70
     0
 71
     1
 91
        2
 92
        1
 93
        4
 72
     2
 10
89.24658385250066
 20
332.0541634224471
 40
2.065479772208543
 50
62.451851824306
 51
117.5481481756667
 73
     1
 72
     2
 10
88.96564396066736
 20
332.5927384327499
 40
1.458034083651465
 50
117.548148175663
 51
242.451851824338
 73
     1
 72
     2
 10
89.24658385250066
 20
333.1313134430532
 40
2.065479772208534
 50
242.4518518243405
 51
297.5481481756867
 73
     1
 72
     2
 10
89.52752374433396
 20
332.5927384327499
 40
1.458034083652028
 50
297.5481481757005
 51
422.4518518242985
 73
     1
 97
        4
330
211
330
210
330
212
330
20F
 92
       16
 93
        4
 72
     2
 10
89.04684381615425
 20
332.5927384327499
 40
0.7717997786797298
 50
321.8795802028384
 51
398.1204197971516
 73
     1
 72
     2
 10
89.24658385250066
 20
332.7494696108704
 40
0.5179085730132998
 50
38.12041979714704
 51
141.8795802028588
 73
     1
 72
     2
 10
89.44632388884676
 20
332.5927384327499
 40
0.7717997786794457
 50
141.879580202838
 51
218.120419797172
 73
     1
 72
     2
 10
89.24658385250066
 20
332.4360072546299
 40
0.5179085730137529
 50
218.1204197971956
 51
321.8795802027985
 73
     1
 97
        4
330
22D
330
22A
330
22B
330
22C
 75
     1
 76
     0
 52
45.0
 41
0.1
 77
     0
 78
     1
 53
45.0
 43
0.0
 44
0.0
 45
-0.0707106781186548
 46
0.0707106781186548
 79
     0
 98
        1
 10
0.0
 20
0.0
  0
HATCH
  5
269
330
71
100
AcDbEntity
  8
1
  6
Continuous
 62
     2
100
AcDbHatch
 10
0.0
 20
0.0
 30
0.0
210
0.0
220
0.0
230
1.0
  2
_USER
 70
     0
 71
     1
 91
        2
 92
        1
 93
        4
 72
     2
 10
89.24658385250066
 20
332.0541634224471
 40
2.065479772208543
 50
62.451851824306
 51
117.5481481756667
 73
     1
 72
     2
 10
88.96564396066736
 20
332.5927384327499
 40
1.458034083651465
 50
117.548148175663
 51
242.451851824338
 73
     1
 72
     2
 10
89.24658385250066
 20
333.1313134430532
 40
2.065479772208534
 50
242.4518518243405
 51
297.5481481756867
 73
     1
 72
     2
 10
89.52752374433396
 20
332.5927384327499
 40
1.458034083652028
 50
297.5481481757005
 51
422.4518518242985
 73
     1
 97
        4
330
211
330
210
330
212
330
20F
 92
       16
 93
        4
 72
     2
 10
89.04684381615425
 20
332.5927384327499
 40
0.7717997786797298
 50
321.8795802028384
 51
398.1204197971516
 73
     1
 72
     2
 10
89.24658385250066
 20
332.7494696108704
 40
0.5179085730132998
 50
38.12041979714704
 51
141.8795802028588
 73
     1
 72
     2
 10
89.44632388884676
 20
332.5927384327499
 40
0.7717997786794457
 50
141.879580202838
 51
218.120419797172
 73
     1
 72
     2
 10
89.24658385250066
 20
332.4360072546299
 40
0.5179085730137529
 50
218.1204197971956
 51
321.8795802027985
 73
     1
 97
        4
330
22D
330
22A
330
22B
330
22C
 75
     1
 76
     0
 52
45.0
 41
0.1
 77
     0
 78
     1
 53
45.0
 43
0.0
 44
0.0
 45
-0.0707106781186548
 46
0.0707106781186548
 79
     0
 98
        1
 10
0.0
 20
0.0
  0
HATCH
  5
26A
330
71
100
AcDbEntity
  8
1
  6
Continuous
 62
     2
100
AcDbHatch
 10
0.0
 20
0.0
 30
0.0
210
0.0
220
0.0
230
1.0
  2
_USER
 70
     0
 71
     1
 91
        2
 92
        1
 93
       12
 72
     1
 10
96.14157904690995
 20
336.7808200653871
 11
94.80565122048228
 21
336.7808200653871
 72
     1
 10
94.80565122048228
 20
336.7808200653871
 11
94.80565122048228
 21
336.3009357116454
 72
     1
 10
94.80565122048228
 20
336.3009357116454
 11
96.14157904690995
 21
336.3009357116454
 72
     1
 10
96.14157904690995
 20
336.3009357116454
 11
96.14157904690995
 21
335.6029221062031
 72
     1
 10
96.14157904690995
 20
335.6029221062031
 11
94.80565122048228
 21
335.6029221062031
 72
     1
 10
94.80565122048228
 20
335.6029221062031
 11
94.80565122048228
 21
335.1230377524614
 72
     1
 10
94.80565122048228
 20
335.1230377524614
 11
96.14157904690995
 21
335.1230377524614
 72
     1
 10
96.14157904690995
 20
335.1230377524614
 11
96.14157904690995
 21
334.4250241470189
 72
     1
 10
96.14157904690995
 20
334.4250241470189
 11
92.99125932312896
 21
334.4250241470189
 72
     2
 10
92.99125932312896
 20
335.9519289089242
 40
1.526904761905939
 50
90.0
 51
270.0
 73
     0
 72
     1
 10
92.99125932312896
 20
337.4788336708301
 11
96.14157904690995
 21
337.4788336708301
 72
     1
 10
96.14157904690995
 20
337.4788336708301
 11
96.14157904690995
 21
336.7808200653871
 97
       12
330
1C8
330
21A
330
1C9
330
1CA
330
1CB
330
1CC
330
1A9
330
1A8
330
1A7
330
1A6
330
1CD
330
1C7
 92
       16
 93
        4
 72
     2
 10
93.20753133329416
 20
336.1086600870447
 40
0.5179085730135266
 50
38.12041979714334
 51
141.8795802028489
 73
     1
 72
     2
 10
93.40727136964045
 20
335.9519289089242
 40
0.7717997786797075
 50
141.8795802028371
 51
218.1204197971529
 73
     1
 72
     2
 10
93.20753133329416
 20
335.7951977308038
 40
0.5179085730134372
 50
218.1204197971511
 51
321.8795802028566
 73
     1
 72
     2
 10
93.00779129694797
 20
335.9519289089242
 40
0.7717997786796023
 50
321.8795802028471
 51
398.1204197971629
 73
     1
 97
        4
330
214
330
213
330
20E
330
20D
 75
     1
 76
     0
 52
45.0
 41
0.1
 77
     0
 78
     1
 53
45.0
 43
0.0
 44
0.0
 45
-0.0707106781186548
 46
0.0707106781186548
 79
     0
 98
        1
 10
0.0
 20
0.0
  0
HATCH
  5
26B
330
71
100
AcDbEntity
  8
1
  6
Continuous
 62
     2
100
AcDbHatch
 10
0.0
 20
0.0
 30
0.0
210
0.0
220
0.0
230
1.0
  2
_USER
 70
     0
 71
     1
 91
        2
 92
        1
 93
       12
 72
     1
 10
96.14157904690995
 20
336.7808200653871
 11
94.80565122048228
 21
336.7808200653871
 72
     1
 10
94.80565122048228
 20
336.7808200653871
 11
94.80565122048228
 21
336.3009357116454
 72
     1
 10
94.80565122048228
 20
336.3009357116454
 11
96.14157904690995
 21
336.3009357116454
 72
     1
 10
96.14157904690995
 20
336.3009357116454
 11
96.14157904690995
 21
335.6029221062031
 72
     1
 10
96.14157904690995
 20
335.6029221062031
 11
94.80565122048228
 21
335.6029221062031
 72
     1
 10
94.80565122048228
 20
335.6029221062031
 11
94.80565122048228
 21
335.1230377524614
 72
     1
 10
94.80565122048228
 20
335.1230377524614
 11
96.14157904690995
 21
335.1230377524614
 72
     1
 10
96.14157904690995
 20
335.1230377524614
 11
96.14157904690995
 21
334.4250241470189
 72
     1
 10
96.14157904690995
 20
334.4250241470189
 11
92.99125932312896
 21
334.4250241470189
 72
     2
 10
92.99125932312896
 20
335.9519289089242
 40
1.526904761905939
 50
90.0
 51
270.0
 73
     0
 72
     1
 10
92.99125932312896
 20
337.4788336708301
 11
96.14157904690995
 21
337.4788336708301
 72
     1
 10
96.14157904690995
 20
337.4788336708301
 11
96.14157904690995
 21
336.7808200653871
 97
       12
330
1C8
330
21A
330
1C9
330
1CA
330
1CB
330
1CC
330
1A9
330
1A8
330
1A7
330
1A6
330
1CD
330
1C7
 92
       16
 93
        4
 72
     2
 10
93.20753133329416
 20
336.1086600870447
 40
0.5179085730135266
 50
38.12041979714334
 51
141.8795802028489
 73
     1
 72
     2
 10
93.40727136964045
 20
335.9519289089242
 40
0.7717997786797075
 50
141.8795802028371
 51
218.1204197971529
 73
     1
 72
     2
 10
93.20753133329416
 20
335.7951977308038
 40
0.5179085730134372
 50
218.1204197971511
 51
321.8795802028566
 73
     1
 72
     2
 10
93.00779129694797
 20
335.9519289089242
 40
0.7717997786796023
 50
321.8795802028471
 51
398.1204197971629
 73
     1
 97
        4
330
214
330
213
330
20E
330
20D
 75
     1
 76
     0
 52
45.0
 41
0.1
 77
     0
 78
     1
 53
45.0
 43
0.0
 44
0.0
 45
-0.0707106781186548
 46
0.0707106781186548
 79
     0
 98
        1
 10
0.0
 20
0.0
  0
HATCH
  5
26C
330
71
100
AcDbEntity
  8
1
  6
Continuous
 62
     2
100
AcDbHatch
 10
0.0
 20
0.0
 30
0.0
210
0.0
220
0.0
230
1.0
  2
_USER
 70
     0
 71
     1
 91
        4
 92
        1
 93
        8
 72
     1
 10
84.21365202524035
 20
337.0545890554281
 11
84.21365202524035
 21
331.4900782862279
 72
     2
 10
83.78940740985647
 20
331.4900782862279
 40
0.4242446153833157
 50
0.0
 51
90.0
 73
     0
 72
     1
 10
83.78940740985647
 20
331.0658336708446
 11
78.31609531913966
 21
331.0658336708446
 72
     2
 10
78.31609531913966
 20
331.4900782862279
 40
0.4242446153828041
 50
90.0
 51
180.0
 73
     0
 72
     1
 10
77.89185070375686
 20
331.4900782862279
 11
77.89185070375686
 21
337.0545890554281
 72
     2
 10
78.31609531913966
 20
337.0545890554281
 40
0.4242446153838273
 50
180.0
 51
270.0
 73
     0
 72
     1
 10
78.31609531913966
 20
337.4788336708119
 11
83.78940740985647
 21
337.4788336708119
 72
     2
 10
83.78940740985647
 20
337.0545890554281
 40
0.4242446153838841
 50
270.0
 51
360.0
 73
     0
 97
        8
330
1BC
330
20A
330
1BD
330
215
330
1BA
330
20C
330
1BB
330
20B
 92
       16
 93
        1
 72
     2
 10
80.93568096965717
 20
334.7357068270726
 40
0.4709789327785074
 50
0.0
 51
360.0
 73
     1
 97
        1
330
230
 92
       16
 93
        8
 72
     2
 10
81.48553868241785
 20
333.6265652271042
 40
0.3157169230765328
 50
115.3740086783519
 51
180.0
 73
     1
 72
     1
 10
81.16982175934106
 20
333.6265652271042
 11
81.16982175934106
 21
333.0447138204091
 72
     2
 10
81.48553868241785
 20
333.0447138204091
 40
0.315716923076792
 50
180.0
 51
269.8110329574541
 73
     1
 72
     2
 10
81.49115481772787
 20
334.7475487679781
 40
2.018561131933266
 50
269.8110329575858
 51
450.1889670424142
 73
     1
 72
     2
 10
81.48553868241785
 20
336.4503837155472
 40
0.3157169230760711
 50
90.18896704254594
 51
180.0
 73
     1
 72
     1
 10
81.16982175934106
 20
336.4503837155472
 11
81.16982175934106
 21
335.8448484270404
 72
     2
 10
81.48553868241785
 20
335.8448484270404
 40
0.315716923076792
 50
180.0
 51
244.6259913216482
 73
     1
 72
     2
 10
80.95949598432998
 20
334.7357068270726
 40
0.9118481501444333
 50
295.3740086781925
 51
424.6259913218228
 73
     0
 97
        8
330
222
330
183
330
21F
330
220
330
1FE
330
182
330
221
330
1FD
 92
       16
 93
       12
 72
     2
 10
78.90998999588615
 20
332.0941061494782
 40
0.3157169230756836
 50
180.0
 51
270.0
 73
     1
 72
     1
 10
78.90998999588615
 20
331.7783892264015
 11
80.38582325689578
 21
331.7783892264015
 72
     2
 10
80.38582325689578
 20
332.0941061494782
 40
0.3157169230767067
 50
270.0
 51
360.0
 73
     1
 72
     1
 10
80.70154017997237
 20
332.0941061494782
 11
80.70154017997237
 21
333.6248770810098
 72
     2
 10
80.38582325689578
 20
333.6248770810098
 40
0.315716923076593
 50
0.0
 51
64.80558935146027
 73
     1
 72
     2
 10
80.90840770447076
 20
334.7357068270726
 40
0.9118975235575889
 50
115.1944106485122
 51
244.805589351471
 73
     0
 72
     2
 10
80.38582325689578
 20
335.8465365731348
 40
0.3157169230761717
 50
295.1944106485354
 51
360.0
 73
     1
 72
     1
 10
80.70154017997237
 20
335.8465365731348
 11
80.70154017997237
 21
336.4505611921953
 72
     2
 10
80.38582325689578
 20
336.4505611921953
 40
0.315716923076593
 50
0.0
 51
90.0
 73
     1
 72
     1
 10
80.38582325689578
 20
336.7662781152715
 11
78.90998999588615
 21
336.7662781152715
 72
     2
 10
78.90998999588615
 20
336.4505611921953
 40
0.3157169230761951
 50
90.0
 51
180.0
 73
     1
 72
     1
 10
78.59427307281047
 20
336.4505611921953
 11
78.59427307281047
 21
332.0941061494782
 97
       12
330
206
330
1BE
330
209
330
1B9
330
216
330
217
330
208
330
1B8
330
207
330
1B7
330
218
330
1B6
 75
     1
 76
     0
 52
45.0
 41
0.1
 77
     0
 78
     1
 53
45.0
 43
0.0
 44
0.0
 45
-0.0707106781186548
 46
0.0707106781186548
 79
     0
 98
        1
 10
0.0
 20
0.0
  0
HATCH
  5
26D
330
71
100
AcDbEntity
  8
1
  6
Continuous
 62
     2
100
AcDbHatch
 10
0.0
 20
0.0
 30
0.0
210
0.0
220
0.0
230
1.0
  2
_USER
 70
     0
 71
     1
 91
        4
 92
        1
 93
        8
 72
     1
 10
84.21365202524035
 20
337.0545890554281
 11
84.21365202524035
 21
331.4900782862279
 72
     2
 10
83.78940740985647
 20
331.4900782862279
 40
0.4242446153833157
 50
0.0
 51
90.0
 73
     0
 72
     1
 10
83.78940740985647
 20
331.0658336708446
 11
78.31609531913966
 21
331.0658336708446
 72
     2
 10
78.31609531913966
 20
331.4900782862279
 40
0.4242446153828041
 50
90.0
 51
180.0
 73
     0
 72
     1
 10
77.89185070375686
 20
331.4900782862279
 11
77.89185070375686
 21
337.0545890554281
 72
     2
 10
78.31609531913966
 20
337.0545890554281
 40
0.4242446153838273
 50
180.0
 51
270.0
 73
     0
 72
     1
 10
78.31609531913966
 20
337.4788336708119
 11
83.78940740985647
 21
337.4788336708119
 72
     2
 10
83.78940740985647
 20
337.0545890554281
 40
0.4242446153838841
 50
270.0
 51
360.0
 73
     0
 97
        8
330
1BC
330
20A
330
1BD
330
215
330
1BA
330
20C
330
1BB
330
20B
 92
       16
 93
        1
 72
     2
 10
80.93568096965717
 20
334.7357068270726
 40
0.4709789327785074
 50
0.0
 51
360.0
 73
     1
 97
        1
330
230
 92
       16
 93
        8
 72
     2
 10
81.48553868241785
 20
333.6265652271042
 40
0.3157169230765328
 50
115.3740086783519
 51
180.0
 73
     1
 72
     1
 10
81.16982175934106
 20
333.6265652271042
 11
81.16982175934106
 21
333.0447138204091
 72
     2
 10
81.48553868241785
 20
333.0447138204091
 40
0.315716923076792
 50
180.0
 51
269.8110329574541
 73
     1
 72
     2
 10
81.49115481772787
 20
334.7475487679781
 40
2.018561131933266
 50
269.8110329575858
 51
450.1889670424142
 73
     1
 72
     2
 10
81.48553868241785
 20
336.4503837155472
 40
0.3157169230760711
 50
90.18896704254594
 51
180.0
 73
     1
 72
     1
 10
81.16982175934106
 20
336.4503837155472
 11
81.16982175934106
 21
335.8448484270404
 72
     2
 10
81.48553868241785
 20
335.8448484270404
 40
0.315716923076792
 50
180.0
 51
244.6259913216482
 73
     1
 72
     2
 10
80.95949598432998
 20
334.7357068270726
 40
0.9118481501444333
 50
295.3740086781925
 51
424.6259913218228
 73
     0
 97
        8
330
222
330
183
330
21F
330
220
330
1FE
330
182
330
221
330
1FD
 92
       16
 93
       12
 72
     2
 10
78.90998999588615
 20
332.0941061494782
 40
0.3157169230756836
 50
180.0
 51
270.0
 73
     1
 72
     1
 10
78.90998999588615
 20
331.7783892264015
 11
80.38582325689578
 21
331.7783892264015
 72
     2
 10
80.38582325689578
 20
332.0941061494782
 40
0.3157169230767067
 50
270.0
 51
360.0
 73
     1
 72
     1
 10
80.70154017997237
 20
332.0941061494782
 11
80.70154017997237
 21
333.6248770810098
 72
     2
 10
80.38582325689578
 20
333.6248770810098
 40
0.315716923076593
 50
0.0
 51
64.80558935146027
 73
     1
 72
     2
 10
80.90840770447076
 20
334.7357068270726
 40
0.9118975235575889
 50
115.1944106485122
 51
244.805589351471
 73
     0
 72
     2
 10
80.38582325689578
 20
335.8465365731348
 40
0.3157169230761717
 50
295.1944106485354
 51
360.0
 73
     1
 72
     1
 10
80.70154017997237
 20
335.8465365731348
 11
80.70154017997237
 21
336.4505611921953
 72
     2
 10
80.38582325689578
 20
336.4505611921953
 40
0.315716923076593
 50
0.0
 51
90.0
 73
     1
 72
     1
 10
80.38582325689578
 20
336.7662781152715
 11
78.90998999588615
 21
336.7662781152715
 72
     2
 10
78.90998999588615
 20
336.4505611921953
 40
0.3157169230761951
 50
90.0
 51
180.0
 73
     1
 72
     1
 10
78.59427307281047
 20
336.4505611921953
 11
78.59427307281047
 21
332.0941061494782
 97
       12
330
206
330
1BE
330
209
330
1B9
330
216
330
217
330
208
330
1B8
330
207
330
1B7
330
218
330
1B6
 75
     1
 76
     0
 52
45.0
 41
0.1
 77
     0
 78
     1
 53
45.0
 43
0.0
 44
0.0
 45
-0.0707106781186548
 46
0.0707106781186548
 79
     0
 98
        1
 10
0.0
 20
0.0
  0
HATCH
  5
26E
330
71
100
AcDbEntity
  8
1
  6
Continuous
 62
     2
100
AcDbHatch
 10
0.0
 20
0.0
 30
0.0
210
0.0
220
0.0
230
1.0
  2
_USER
 70
     0
 71
     1
 91
        1
 92
        1
 93
       18
 72
     1
 10
105.8031999344614
 20
333.3343778885321
 11
104.992100896988
 21
333.3343778885321
 72
     1
 10
104.992100896988
 20
333.3343778885321
 11
104.992100896988
 21
331.0658336708446
 72
     1
 10
104.992100896988
 20
331.0658336708446
 11
103.7993081948203
 21
331.0658336708446
 72
     1
 10
103.7993081948203
 20
331.0658336708446
 11
103.7993081948203
 21
333.3343778885321
 72
     1
 10
103.7993081948203
 20
333.3343778885321
 11
102.6956688952522
 21
333.3343778885321
 72
     2
 10
102.6956688952522
 20
332.379854881706
 40
0.9545230068260935
 50
90.0
 51
109.3371432194312
 73
     1
 72
     2
 10
102.5489988971485
 20
332.7978098620889
 40
0.5115800601944096
 50
109.3371432194838
 51
151.4785267424245
 73
     1
 72
     2
 10
102.9263561552299
 20
332.5927384327499
 40
0.9410597353348789
 50
151.478526742364
 51
208.5214732576695
 73
     1
 72
     2
 10
102.5489988971485
 20
332.3876670034114
 40
0.5115800601960091
 50
208.5214732576873
 51
246.6277221118464
 73
     1
 72
     2
 10
102.7054389298516
 20
332.7496590221214
 40
0.9059297849852744
 50
246.6277221118191
 51
288.4480761180806
 73
     1
 72
     2
 10
102.2872711961897
 20
334.003204798158
 40
2.227384008972768
 50
288.4480761181329
 51
301.930908949939
 73
     1
 72
     1
 10
103.4653262382136
 20
332.1128540790082
 11
103.4653262382136
 21
331.2403370722049
 72
     2
 10
102.1293983210969
 20
335.9054193780063
 40
4.852596863498824
 50
74.0200087416614
 51
84.8418552303638
 73
     0
 72
     2
 10
102.4182544158327
 20
332.7055287947847
 40
1.639695123940434
 50
84.8418552303238
 51
164.9381082228987
 73
     0
 72
     2
 10
101.9991265723711
 20
332.5927384327499
 40
1.205656168392974
 50
164.9381082229026
 51
195.0618917770948
 73
     0
 72
     2
 10
102.4182544158327
 20
332.479948070715
 40
1.639695123940214
 50
195.0618917771032
 51
270.0
 73
     0
 72
     1
 10
102.4182544158327
 20
334.1196431946552
 11
105.8031999344614
 21
334.1196431946557
 72
     1
 10
105.8031999344614
 20
334.1196431946557
 11
105.8031999344614
 21
333.3343778885321
 97
       18
330
185
330
21B
330
21C
330
204
330
203
330
1E9
330
202
330
201
330
21D
330
200
330
21E
330
1FF
330
1EA
330
184
330
189
330
188
330
187
330
186
 75
     1
 76
     0
 52
45.0
 41
0.1
 77
     0
 78
     1
 53
45.0
 43
0.0
 44
0.0
 45
-0.0707106781186548
 46
0.0707106781186548
 79
     0
 98
        1
 10
0.0
 20
0.0
  0
HATCH
  5
26F
330
71
100
AcDbEntity
  8
1
  6
Continuous
 62
     2
100
AcDbHatch
 10
0.0
 20
0.0
 30
0.0
210
0.0
220
0.0
230
1.0
  2
_USER
 70
     0
 71
     1
 91
        1
 92
        1
 93
       18
 72
     1
 10
105.8031999344614
 20
333.3343778885321
 11
104.992100896988
 21
333.3343778885321
 72
     1
 10
104.992100896988
 20
333.3343778885321
 11
104.992100896988
 21
331.0658336708446
 72
     1
 10
104.992100896988
 20
331.0658336708446
 11
103.7993081948203
 21
331.0658336708446
 72
     1
 10
103.7993081948203
 20
331.0658336708446
 11
103.7993081948203
 21
333.3343778885321
 72
     1
 10
103.7993081948203
 20
333.3343778885321
 11
102.6956688952522
 21
333.3343778885321
 72
     2
 10
102.6956688952522
 20
332.379854881706
 40
0.9545230068260935
 50
90.0
 51
109.3371432194312
 73
     1
 72
     2
 10
102.5489988971485
 20
332.7978098620889
 40
0.5115800601944096
 50
109.3371432194838
 51
151.4785267424245
 73
     1
 72
     2
 10
102.9263561552299
 20
332.5927384327499
 40
0.9410597353348789
 50
151.478526742364
 51
208.5214732576695
 73
     1
 72
     2
 10
102.5489988971485
 20
332.3876670034114
 40
0.5115800601960091
 50
208.5214732576873
 51
246.6277221118464
 73
     1
 72
     2
 10
102.7054389298516
 20
332.7496590221214
 40
0.9059297849852744
 50
246.6277221118191
 51
288.4480761180806
 73
     1
 72
     2
 10
102.2872711961897
 20
334.003204798158
 40
2.227384008972768
 50
288.4480761181329
 51
301.930908949939
 73
     1
 72
     1
 10
103.4653262382136
 20
332.1128540790082
 11
103.4653262382136
 21
331.2403370722049
 72
     2
 10
102.1293983210969
 20
335.9054193780063
 40
4.852596863498824
 50
74.0200087416614
 51
84.8418552303638
 73
     0
 72
     2
 10
102.4182544158327
 20
332.7055287947847
 40
1.639695123940434
 50
84.8418552303238
 51
164.9381082228987
 73
     0
 72
     2
 10
101.9991265723711
 20
332.5927384327499
 40
1.205656168392974
 50
164.9381082229026
 51
195.0618917770948
 73
     0
 72
     2
 10
102.4182544158327
 20
332.479948070715
 40
1.639695123940214
 50
195.0618917771032
 51
270.0
 73
     0
 72
     1
 10
102.4182544158327
 20
334.1196431946552
 11
105.8031999344614
 21
334.1196431946557
 72
     1
 10
105.8031999344614
 20
334.1196431946557
 11
105.8031999344614
 21
333.3343778885321
 97
       18
330
185
330
21B
330
21C
330
204
330
203
330
1E9
330
202
330
201
330
21D
330
200
330
21E
330
1FF
330
1EA
330
184
330
189
330
188
330
187
330
186
 75
     1
 76
     0
 52
45.0
 41
0.1
 77
     0
 78
     1
 53
45.0
 43
0.0
 44
0.0
 45
-0.0707106781186548
 46
0.0707106781186548
 79
     0
 98
        1
 10
0.0
 20
0.0
  0
HATCH
  5
270
330
71
100
AcDbEntity
  8
1
  6
Continuous
 62
     2
100
AcDbHatch
 10
0.0
 20
0.0
 30
0.0
210
0.0
220
0.0
230
1.0
  2
_USER
 70
     0
 71
     1
 91
        1
 92
        1
 93
       14
 72
     2
 10
86.31555293657976
 20
332.479948070715
 40
1.639695123940507
 50
84.84185523036236
 51
164.9381082228884
 73
     1
 72
     2
 10
85.89642509311696
 20
332.5927384327499
 40
1.205656168390929
 50
164.9381082228791
 51
195.0618917770948
 73
     1
 72
     2
 10
86.31555293657976
 20
332.7055287947847
 40
1.63969512393938
 50
195.0618917770886
 51
275.1581447696396
 73
     1
 72
     2
 10
86.02669684184386
 20
335.9054193780063
 40
4.85259686349811
 50
275.158144769625
 51
285.9799912583529
 73
     1
 72
     1
 10
87.36262475896166
 20
331.2403370722055
 11
87.36262475896166
 21
332.1128540790087
 72
     2
 10
86.18456971693678
 20
334.0032047981586
 40
2.227384008972764
 50
58.06909105004111
 51
71.55192388186742
 73
     0
 72
     2
 10
86.60273745059757
 20
332.7496590221214
 40
0.9059297849849192
 50
71.55192388184209
 51
113.372277888129
 73
     0
 72
     2
 10
86.44629741789555
 20
332.3876670034114
 40
0.5115800601948034
 50
113.3722778881726
 51
151.4785267423044
 73
     0
 72
     2
 10
86.82365467597586
 20
332.5927384327499
 40
0.9410597353332545
 50
151.4785267422943
 51
208.5214732577331
 73
     0
 72
     2
 10
86.44629741789555
 20
332.7978098620889
 40
0.5115800601948517
 50
208.5214732576956
 51
246.6277221117996
 73
     0
 72
     2
 10
86.60273745059757
 20
332.4358178433783
 40
0.9059297849853228
 50
246.627722111871
 51
288.4480761181465
 73
     0
 72
     2
 10
86.18456971693678
 20
331.1822720673417
 40
2.227384008973453
 50
288.448076118133
 51
301.9309089499596
 73
     0
 72
     1
 10
87.36262475896166
 20
333.0726227864916
 11
87.36262475896166
 21
333.9451397932949
 72
     2
 10
86.02669684184386
 20
329.280057487494
 40
4.852596863498095
 50
74.02000874164747
 51
84.84185523037509
 73
     1
 97
       14
330
223
330
224
330
225
330
226
330
1EB
330
1FC
330
1FB
330
1FA
330
227
330
228
330
1F9
330
229
330
1EC
330
1F8
 75
     1
 76
     0
 52
45.0
 41
0.1
 77
     0
 78
     1
 53
45.0
 43
0.0
 44
0.0
 45
-0.0707106781186548
 46
0.0707106781186548
 79
     0
 98
        1
 10
0.0
 20
0.0
  0
HATCH
  5
271
330
71
100
AcDbEntity
  8
1
  6
Continuous
 62
     2
100
AcDbHatch
 10
0.0
 20
0.0
 30
0.0
210
0.0
220
0.0
230
1.0
  2
_USER
 70
     0
 71
     1
 91
        1
 92
        1
 93
       14
 72
     2
 10
86.31555293657976
 20
332.479948070715
 40
1.639695123940507
 50
84.84185523036236
 51
164.9381082228884
 73
     1
 72
     2
 10
85.89642509311696
 20
332.5927384327499
 40
1.205656168390929
 50
164.9381082228791
 51
195.0618917770948
 73
     1
 72
     2
 10
86.31555293657976
 20
332.7055287947847
 40
1.63969512393938
 50
195.0618917770886
 51
275.1581447696396
 73
     1
 72
     2
 10
86.02669684184386
 20
335.9054193780063
 40
4.85259686349811
 50
275.158144769625
 51
285.9799912583529
 73
     1
 72
     1
 10
87.36262475896166
 20
331.2403370722055
 11
87.36262475896166
 21
332.1128540790087
 72
     2
 10
86.18456971693678
 20
334.0032047981586
 40
2.227384008972764
 50
58.06909105004111
 51
71.55192388186742
 73
     0
 72
     2
 10
86.60273745059757
 20
332.7496590221214
 40
0.9059297849849192
 50
71.55192388184209
 51
113.372277888129
 73
     0
 72
     2
 10
86.44629741789555
 20
332.3876670034114
 40
0.5115800601948034
 50
113.3722778881726
 51
151.4785267423044
 73
     0
 72
     2
 10
86.82365467597586
 20
332.5927384327499
 40
0.9410597353332545
 50
151.4785267422943
 51
208.5214732577331
 73
     0
 72
     2
 10
86.44629741789555
 20
332.7978098620889
 40
0.5115800601948517
 50
208.5214732576956
 51
246.6277221117996
 73
     0
 72
     2
 10
86.60273745059757
 20
332.4358178433783
 40
0.9059297849853228
 50
246.627722111871
 51
288.4480761181465
 73
     0
 72
     2
 10
86.18456971693678
 20
331.1822720673417
 40
2.227384008973453
 50
288.448076118133
 51
301.9309089499596
 73
     0
 72
     1
 10
87.36262475896166
 20
333.0726227864916
 11
87.36262475896166
 21
333.9451397932949
 72
     2
 10
86.02669684184386
 20
329.280057487494
 40
4.852596863498095
 50
74.02000874164747
 51
84.84185523037509
 73
     1
 97
       14
330
223
330
224
330
225
330
226
330
1EB
330
1FC
330
1FB
330
1FA
330
227
330
228
330
1F9
330
229
330
1EC
330
1F8
 75
     1
 76
     0
 52
45.0
 41
0.1
 77
     0
 78
     1
 53
45.0
 43
0.0
 44
0.0
 45
-0.0707106781186548
 46
0.0707106781186548
 79
     0
 98
        1
 10
0.0
 20
0.0
  0
ENDBLK
  5
73
330
71
100
AcDbEntity
  8
0
100
AcDbBlockEnd
  0
BLOCK
  5
75
330
74
100
AcDbEntity
  8
0
100
AcDbBlockBegin
  2
_punkt
 70
     0
 10
203.2000003439443
 20
323.7723336708283
 30
0.0
  3
_punkt
  1

  0
LINE
  5
272
330
74
100
AcDbEntity
  8
1
  6
Continuous
 62
     2
100
AcDbLine
 10
203.2000003439443
 20
323.7723336708283
 30
0.0
 11
208.2000003439433
 21
323.7723336708283
 31
0.0
  0
LINE
  5
273
330
74
100
AcDbEntity
  8
1
  6
Continuous
 62
     2
100
AcDbLine
 10
203.2000003439443
 20
323.7723336708283
 30
0.0
 11
203.2000003439443
 21
318.7723336708282
 31
0.0
  0
ENDBLK
  5
76
330
74
100
AcDbEntity
  8
0
100
AcDbBlockEnd
  0
BLOCK
  5
7A
330
77
100
AcDbEntity
  8
0
100
AcDbBlockBegin
  2
A4I_CS
 70
     0
 10
203.2000003439443
 20
318.7723336708282
 30
0.0
  3
A4I_CS
  1

  0
INSERT
  5
78
330
77
100
AcDbEntity
  8
1
100
AcDbBlockReference
  2
_rahmen
 10
203.2000003439443
 20
318.7723336708282
 30
0.0
  0
INSERT
  5
79
330
77
100
AcDbEntity
  8
1
100
AcDbBlockReference
  2
_punkt
 10
203.2000003439443
 20
323.7723336708283
 30
0.0
  0
ENDBLK
  5
7B
330
77
100
AcDbEntity
  8
0
100
AcDbBlockEnd
  0
BLOCK
  5
84
330
7C
100
AcDbEntity
  8
0
100
AcDbBlockBegin
  2
1
 70
     0
 10
0.0
 20
0.0
 30
0.0
  3
1
  1

  0
INSERT
  5
7D
330
7C
100
AcDbEntity
  8
0
100
AcDbBlockReference
  2
Back1
 10
145.3039702688973
 20
479.7053331062033
 30
0.0
  0
INSERT
  5
7E
330
7C
100
AcDbEntity
  8
0
100
AcDbBlockReference
  2
Front1
 10
23.999999418995
 20
479.7053331062033
 30
0.0
  0
INSERT
  5
7F
330
7C
100
AcDbEntity
  8
0
100
AcDbBlockReference
  2
Gen1
 10
145.3039697304286
 20
398.7053337599464
 30
0.0
  0
INSERT
  5
80
330
7C
100
AcDbEntity
  8
0
100
AcDbBlockReference
  2
Left1
 10
85.19999934394855
 20
479.7053331062015
 30
0.0
  0
INSERT
  5
81
330
7C
100
AcDbEntity
  8
0
100
AcDbBlockReference
  2
Right1
 10
-56.2000001819298
 20
479.7053331062033
 30
0.0
  0
INSERT
  5
82
330
7C
100
AcDbEntity
  8
0
100
AcDbBlockReference
  2
Top1
 10
23.99999931264456
 20
422.7994957365069
 30
0.0
  0
INSERT
  5
83
330
7C
100
AcDbEntity
  8
0
100
AcDbBlockReference
  2
A4I_CS
 10
203.2000003439443
 20
318.7723336708282
 30
0.0
  0
ENDBLK
  5
85
330
7C
100
AcDbEntity
  8
0
100
AcDbBlockEnd
  0
BLOCK
  5
B5
330
AE
100
AcDbEntity
  8
0
100
AcDbBlockBegin
  2
*D17
 70
     1
 10
0.0
 20
0.0
 30
0.0
  3
*D17
  1

  0
LINE
  5
AF
330
AE
100
AcDbEntity
  8
1
  6
Continuous
 62
     2
100
AcDbLine
 10
-6.2000005059552
 20
449.8774929189181
 30
0.0
 11
54.19999949404501
 21
449.8774929189181
 31
0.0
  0
LINE
  5
B0
330
AE
100
AcDbEntity
  8
1
  6
Continuous
 62
     2
100
AcDbLine
 10
-6.2000005059552
 20
465.1803335264164
 30
0.0
 11
-6.2000005059552
 21
448.3774929189181
 31
0.0
  0
LINE
  5
B1
330
AE
100
AcDbEntity
  8
1
  6
Continuous
 62
     2
100
AcDbLine
 10
54.19999949404501
 20
468.1803335264113
 30
0.0
 11
54.19999949404501
 21
448.3774929189181
 31
0.0
  0
SOLID
  5
B2
330
AE
100
AcDbEntity
  8
1
 62
     2
100
AcDbTrace
 10
-2.7000005059552
 20
450.338276660474
 30
0.0
 11
-2.7000005059552
 21
449.4167091773622
 31
0.0
 12
-6.2000005059552
 22
449.8774929189181
 32
0.0
 13
-6.2000005059552
 23
449.8774929189181
 33
0.0
  0
SOLID
  5
B3
330
AE
100
AcDbEntity
  8
1
 62
     2
100
AcDbTrace
 10
50.69999949404501
 20
449.4167091773622
 30
0.0
 11
50.69999949404501
 21
450.338276660474
 31
0.0
 12
54.19999949404501
 22
449.8774929189181
 32
0.0
 13
54.19999949404501
 23
449.8774929189181
 33
0.0
  0
MTEXT
  5
B4
330
AE
100
AcDbEntity
  8
1
 62
     3
100
AcDbMText
 10
20.1969118483981
 20
451.7274929189181
 30
0.0
 40
3.5
 41
0.0
 71
     7
 72
     1
  1
60,4
  7
CONVERTER_11
 11
0.9999999999970619
 21
2.424068405545306E-6
 31
0.0
 73
     1
 44
0.60024009603842
  0
ENDBLK
  5
B6
330
AE
100
AcDbEntity
  8
0
100
AcDbBlockEnd
  0
BLOCK
  5
C0
330
B9
100
AcDbEntity
  8
0
100
AcDbBlockBegin
  2
*D18
 70
     1
 10
0.0
 20
0.0
 30
0.0
  3
*D18
  1

  0
LINE
  5
BA
330
B9
100
AcDbEntity
  8
1
  6
Continuous
 62
     2
100
AcDbLine
 10
-22.3798959823433
 20
494.2303335264098
 30
0.0
 11
-22.3798959823433
 21
465.1803335264163
 31
0.0
  0
LINE
  5
BB
330
B9
100
AcDbEntity
  8
1
  6
Continuous
 62
     2
100
AcDbLine
 10
-4.23980627660835
 20
494.2303335264098
 30
0.0
 11
-23.8798959823433
 21
494.2303335264098
 31
0.0
  0
LINE
  5
BC
330
B9
100
AcDbEntity
  8
1
  6
Continuous
 62
     2
100
AcDbLine
 10
-6.2000005059552
 20
465.1803335264163
 30
0.0
 11
-23.8798959823433
 21
465.1803335264163
 31
0.0
  0
SOLID
  5
BD
330
B9
100
AcDbEntity
  8
1
 62
     2
100
AcDbTrace
 10
-21.91911224078742
 20
490.7303335264098
 30
0.0
 11
-22.84067972389919
 21
490.7303335264098
 31
0.0
 12
-22.3798959823433
 22
494.2303335264098
 32
0.0
 13
-22.3798959823433
 23
494.2303335264098
 33
0.0
  0
SOLID
  5
BE
330
B9
100
AcDbEntity
  8
1
 62
     2
100
AcDbTrace
 10
-22.84067972389919
 20
468.6803335264163
 30
0.0
 11
-21.91911224078741
 21
468.6803335264163
 31
0.0
 12
-22.3798959823433
 22
465.1803335264163
 32
0.0
 13
-22.3798959823433
 23
465.1803335264163
 33
0.0
  0
MTEXT
  5
BF
330
B9
100
AcDbEntity
  8
1
 62
     3
100
AcDbMText
 10
-24.2298959823433
 20
475.1909388659791
 30
0.0
 40
3.5
 41
0.0
 71
     7
 72
     1
  1
29,1
  7
CONVERTER_11
 11
0.0
 21
1.0
 31
0.0
 73
     1
 44
0.60024009603842
  0
ENDBLK
  5
C1
330
B9
100
AcDbEntity
  8
0
100
AcDbBlockEnd
  0
BLOCK
  5
137
330
12E
100
AcDbEntity
  8
0
100
AcDbBlockBegin
  2
*D19
 70
     1
 10
0.0
 20
0.0
 30
0.0
  3
*D19
  1

  0
LINE
  5
12F
330
12E
100
AcDbEntity
  8
1
  6
Continuous
 62
     2
100
AcDbLine
 10
-18.30587463781517
 20
430.8994957603488
 30
0.0
 11
-18.30587463781517
 21
423.8994957603488
 31
0.0
  0
LINE
  5
130
330
12E
100
AcDbEntity
  8
1
  6
Continuous
 62
     2
100
AcDbLine
 10
-18.30587463781517
 20
423.8994957603488
 30
0.0
 11
-18.30587463781517
 21
421.6994957603488
 31
0.0
  0
LINE
  5
131
330
12E
100
AcDbEntity
  8
1
  6
Continuous
 62
     2
100
AcDbLine
 10
-18.30587463781517
 20
421.6994957603488
 30
0.0
 11
-18.30587463781517
 21
414.6994957603488
 31
0.0
  0
LINE
  5
132
330
12E
100
AcDbEntity
  8
1
  6
Continuous
 62
     2
100
AcDbLine
 10
-6.20000061230565
 20
423.8994957603488
 30
0.0
 11
-19.80587463781517
 21
423.8994957603488
 31
0.0
  0
LINE
  5
133
330
12E
100
AcDbEntity
  8
1
  6
Continuous
 62
     2
100
AcDbLine
 10
-6.20000061230565
 20
421.6994957603488
 30
0.0
 11
-19.80587463781517
 21
421.6994957603488
 31
0.0
  0
SOLID
  5
134
330
12E
100
AcDbEntity
  8
1
 62
     2
100
AcDbTrace
 10
-18.76665837937106
 20
427.3994957603488
 30
0.0
 11
-17.84509089625928
 21
427.3994957603488
 31
0.0
 12
-18.30587463781517
 22
423.8994957603488
 32
0.0
 13
-18.30587463781517
 23
423.8994957603488
 33
0.0
  0
SOLID
  5
135
330
12E
100
AcDbEntity
  8
1
 62
     2
100
AcDbTrace
 10
-17.84509089625929
 20
418.1994957603488
 30
0.0
 11
-18.76665837937106
 21
418.1994957603488
 31
0.0
 12
-18.30587463781517
 22
421.6994957603488
 32
0.0
 13
-18.30587463781517
 23
421.6994957603488
 33
0.0
  0
MTEXT
  5
136
330
12E
100
AcDbEntity
  8
1
 62
     3
100
AcDbMText
 10
-20.15587463781517
 20
419.3122700558411
 30
0.0
 40
3.5
 41
0.0
 71
     7
 72
     1
  1
2,2
  7
CONVERTER_11
 11
0.0
 21
1.0
 31
0.0
 73
     1
 44
0.60024009603842
  0
ENDBLK
  5
138
330
12E
100
AcDbEntity
  8
0
100
AcDbBlockEnd
  0
ENDSEC
  0
SECTION
  2
ENTITIES
  0
INSERT
  5
86
330
1F
100
AcDbEntity
  8
1
100
AcDbBlockReference
  2
1
 10
0.0
 20
0.0
 30
0.0
  0
ENDSEC
  0
SECTION
  2
OBJECTS
  0
DICTIONARY
  5
C
330
0
100
AcDbDictionary
281
     1
  3
ACAD_GROUP
350
D
  3
ACAD_LAYOUT
350
1A
  3
ACAD_MATERIAL
350
3B
  3
ACAD_MLEADERSTYLE
350
29B
  3
ACAD_MLINESTYLE
350
17
  3
ACAD_PLOTSETTINGS
350
19
  3
ACAD_PLOTSTYLENAME
350
E
  3
ACAD_TABLESTYLE
350
29A
  3
ACAD_VISUALSTYLE
350
2A
  0
DICTIONARY
  5
D
102
{ACAD_REACTORS
330
C
102
}
330
C
100
AcDbDictionary
281
     1
  0
DICTIONARY
  5
1A
102
{ACAD_REACTORS
330
C
102
}
330
C
100
AcDbDictionary
281
     1
  3
Layout1
350
1E
  3
Layout2
350
26
  3
Model
350
22
  0
DICTIONARY
  5
3B
102
{ACAD_REACTORS
330
C
102
}
330
C
100
AcDbDictionary
281
     1
  3
ByBlock
350
3D
  3
ByLayer
350
3C
  3
Global
350
3E
  0
DICTIONARY
  5
29B
102
{ACAD_REACTORS
330
C
102
}
330
C
100
AcDbDictionary
281
     1
  0
DICTIONARY
  5
17
102
{ACAD_REACTORS
330
C
102
}
330
C
100
AcDbDictionary
281
     1
  3
Standard
350
18
  0
DICTIONARY
  5
19
102
{ACAD_REACTORS
330
C
102
}
330
C
100
AcDbDictionary
281
     1
  0
ACDBDICTIONARYWDFLT
  5
E
102
{ACAD_REACTORS
330
C
102
}
330
C
100
AcDbDictionary
281
     1
  3
Normal
350
F
100
AcDbDictionaryWithDefault
340
F
  0
DICTIONARY
  5
29A
102
{ACAD_REACTORS
330
C
102
}
330
C
100
AcDbDictionary
281
     1
  0
DICTIONARY
  5
2A
102
{ACAD_REACTORS
330
C
102
}
330
C
100
AcDbDictionary
281
     1
  3
2dWireframe
350
2F
  3
3D Hidden
350
31
  3
3dWireframe
350
30
  3
Basic
350
32
  3
Brighten
350
36
  3
ColorChange
350
3A
  3
Conceptual
350
34
  3
Dim
350
35
  3
Facepattern
350
39
  3
Flat
350
2B
  3
FlatWithEdges
350
2C
  3
Gouraud
350
2D
  3
GouraudWithEdges
350
2E
  3
Linepattern
350
38
  3
Realistic
350
33
  3
Thicken
350
37
  0
LAYOUT
  5
1E
102
{ACAD_REACTORS
330
1A
102
}
330
1A
100
AcDbPlotSettings
  1

  2
none_device
  4

  6

 40
0.0
 41
0.0
 42
0.0
 43
0.0
 44
0.0
 45
0.0
 46
0.0
 47
0.0
 48
0.0
 49
0.0
140
0.0
141
0.0
142
1.0
143
1.0
 70
   688
 72
     0
 73
     0
 74
     5
  7

 75
    16
 76
     0
 77
     2
 78
   300
147
1.0
148
0.0
149
0.0
100
AcDbLayout
  1
Layout1
 70
     1
 71
     1
 10
0.0
 20
0.0
 11
12.0
 21
9.0
 12
0.0
 22
0.0
 32
0.0
 14
1.00000000000000E+20
 24
1.00000000000000E+20
 34
1.00000000000000E+20
 15
-1.00000000000000E+20
 25
-1.00000000000000E+20
 35
-1.00000000000000E+20
146
0.0
 13
0.0
 23
0.0
 33
0.0
 16
1.0
 26
0.0
 36
0.0
 17
0.0
 27
1.0
 37
0.0
 76
     0
330
1B
  0
LAYOUT
  5
26
102
{ACAD_REACTORS
330
1A
102
}
330
1A
100
AcDbPlotSettings
  1

  2
none_device
  4

  6

 40
0.0
 41
0.0
 42
0.0
 43
0.0
 44
0.0
 45
0.0
 46
0.0
 47
0.0
 48
0.0
 49
0.0
140
0.0
141
0.0
142
1.0
143
1.0
 70
   688
 72
     0
 73
     0
 74
     5
  7

 75
    16
 76
     0
 77
     2
 78
   300
147
1.0
148
0.0
149
0.0
100
AcDbLayout
  1
Layout2
 70
     1
 71
     2
 10
0.0
 20
0.0
 11
0.0
 21
0.0
 12
0.0
 22
0.0
 32
0.0
 14
0.0
 24
0.0
 34
0.0
 15
0.0
 25
0.0
 35
0.0
146
0.0
 13
0.0
 23
0.0
 33
0.0
 16
1.0
 26
0.0
 36
0.0
 17
0.0
 27
1.0
 37
0.0
 76
     0
330
23
  0
LAYOUT
  5
22
102
{ACAD_REACTORS
330
1A
102
}
330
1A
100
AcDbPlotSettings
  1

  2
none_device
  4

  6

 40
0.0
 41
0.0
 42
0.0
 43
0.0
 44
0.0
 45
0.0
 46
0.0
 47
0.0
 48
0.0
 49
0.0
140
0.0
141
0.0
142
1.0
143
1.0
 70
  1712
 72
     0
 73
     0
 74
     0
  7

 75
     0
 76
     0
 77
     2
 78
   300
147
1.0
148
0.0
149
0.0
100
AcDbLayout
  1
Model
 70
     1
 71
     0
 10
0.0
 20
0.0
 11
12.0
 21
9.0
 12
0.0
 22
0.0
 32
0.0
 14
-88.79999965605481
 24
318.7723336708282
 34
0.0
 15
208.2000003439433
 25
528.7723336708283
 35
0.0
146
0.0
 13
0.0
 23
0.0
 33
0.0
 16
1.0
 26
0.0
 36
0.0
 17
0.0
 27
1.0
 37
0.0
 76
     0
330
1F
331
29
  0
MATERIAL
  5
3D
102
{ACAD_REACTORS
330
3B
102
}
102
{ACAD_XDICTIONARY
360
296
102
}
330
3B
100
AcDbMaterial
  1
ByBlock
  0
MATERIAL
  5
3C
102
{ACAD_REACTORS
330
3B
102
}
102
{ACAD_XDICTIONARY
360
294
102
}
330
3B
100
AcDbMaterial
  1
ByLayer
  0
MATERIAL
  5
3E
102
{ACAD_REACTORS
330
3B
102
}
102
{ACAD_XDICTIONARY
360
298
102
}
330
3B
100
AcDbMaterial
  1
Global
  0
MLINESTYLE
  5
18
102
{ACAD_REACTORS
330
17
102
}
330
17
100
AcDbMlineStyle
  2
Standard
 70
     0
  3

 62
   256
 51
90.0
 52
90.0
 71
     2
 49
0.5
 62
   256
  6
BYLAYER
 49
-0.5
 62
   256
  6
BYLAYER
  0
ACDBPLACEHOLDER
  5
F
102
{ACAD_REACTORS
330
E
102
}
330
E
  0
VISUALSTYLE
  5
2F
102
{ACAD_REACTORS
330
2A
102
}
102
{ACAD_XDICTIONARY
360
27C
102
}
330
2A
100
AcDbVisualStyle
  2
2dWireframe
 70
     4
 71
     0
 72
     2
 73
     0
 90
        0
 40
-0.6
 41
-30.0
 62
     5
 63
     7
421
 16777215
 74
     1
 91
        4
 64
     7
 65
   257
 75
     1
175
     1
 42
1.0
 92
        0
 66
   257
 43
1.0
 76
     1
 77
     6
 78
     2
 67
     7
 79
     5
170
     0
171
     0
290
     0
174
     0
 93
        1
 44
0.0
173
     0
291
     0
 45
0.0
1001
ACAD
1000
AcDbSavedByObjectVersion
1070
     0
  0
VISUALSTYLE
  5
31
102
{ACAD_REACTORS
330
2A
102
}
102
{ACAD_XDICTIONARY
360
280
102
}
330
2A
100
AcDbVisualStyle
  2
3D Hidden
 70
     6
 71
     1
 72
     2
 73
     2
 90
        0
 40
-0.6
 41
-30.0
 62
     5
 63
     7
421
 16777215
 74
     2
 91
        2
 64
     7
 65
   257
 75
     2
175
     1
 42
40.0
 92
        0
 66
   257
 43
1.0
 76
     1
 77
     6
 78
     2
 67
     7
 79
     3
170
     0
171
     0
290
     0
174
     0
 93
        1
 44
0.0
173
     0
291
     0
 45
0.0
1001
ACAD
1000
AcDbSavedByObjectVersion
1070
     0
  0
VISUALSTYLE
  5
30
102
{ACAD_REACTORS
330
2A
102
}
102
{ACAD_XDICTIONARY
360
27E
102
}
330
2A
100
AcDbVisualStyle
  2
3dWireframe
 70
     5
 71
     0
 72
     2
 73
     0
 90
        0
 40
-0.6
 41
-30.0
 62
     5
 63
     7
421
 16777215
 74
     1
 91
        4
 64
     7
 65
   257
 75
     1
175
     1
 42
1.0
 92
        0
 66
   257
 43
1.0
 76
     1
 77
     6
 78
     2
 67
     7
 79
     5
170
     0
171
     0
290
     0
174
     0
 93
        1
 44
0.0
173
     0
291
     0
 45
0.0
1001
ACAD
1000
AcDbSavedByObjectVersion
1070
     0
  0
VISUALSTYLE
  5
32
102
{ACAD_REACTORS
330
2A
102
}
102
{ACAD_XDICTIONARY
360
282
102
}
330
2A
100
AcDbVisualStyle
  2
Basic
 70
     7
 71
     1
 72
     0
 73
     1
 90
        0
 40
-0.6
 41
-30.0
 62
     5
 63
     7
421
 16777215
 74
     0
 91
        4
 64
     7
 65
   257
 75
     1
175
     1
 42
1.0
 92
        8
 66
     7
 43
1.0
 76
     1
 77
     6
 78
     2
 67
     7
 79
     5
170
     0
171
     0
290
     0
174
     0
 93
        1
 44
0.0
173
     0
291
     1
 45
0.0
1001
ACAD
1000
AcDbSavedByObjectVersion
1070
     0
  0
VISUALSTYLE
  5
36
102
{ACAD_REACTORS
330
2A
102
}
102
{ACAD_XDICTIONARY
360
28A
102
}
330
2A
100
AcDbVisualStyle
  2
Brighten
 70
    12
 71
     2
 72
     2
 73
     0
 90
        0
 40
-0.6
 41
-30.0
 62
     5
 63
     7
421
 16777215
 74
     1
 91
        4
 64
     7
 65
   257
 75
     1
175
     1
 42
1.0
 92
        8
 66
     7
 43
1.0
 76
     1
 77
     6
 78
     2
 67
     7
 79
     5
170
     0
171
     0
290
     0
174
     0
 93
        1
 44
50.0
173
     0
291
     1
 45
0.0
1001
ACAD
1000
AcDbSavedByObjectVersion
1070
     0
  0
VISUALSTYLE
  5
3A
102
{ACAD_REACTORS
330
2A
102
}
102
{ACAD_XDICTIONARY
360
292
102
}
330
2A
100
AcDbVisualStyle
  2
ColorChange
 70
    16
 71
     2
 72
     2
 73
     3
 90
        0
 40
-0.6
 41
-30.0
 62
     5
 63
     8
421
  8421504
 74
     1
 91
        4
 64
     7
 65
   257
 75
     1
175
     1
 42
1.0
 92
        8
 66
     8
424
  8421504
 43
1.0
 76
     1
 77
     6
 78
     2
 67
     7
 79
     5
170
     0
171
     0
290
     0
174
     0
 93
        1
 44
0.0
173
     0
291
     1
 45
0.0
1001
ACAD
1000
AcDbSavedByObjectVersion
1070
     0
  0
VISUALSTYLE
  5
34
102
{ACAD_REACTORS
330
2A
102
}
102
{ACAD_XDICTIONARY
360
286
102
}
330
2A
100
AcDbVisualStyle
  2
Conceptual
 70
     9
 71
     3
 72
     2
 73
     0
 90
        0
 40
-0.6
 41
-30.0
 62
     5
 63
     7
421
 16777215
 74
     2
 91
        2
 64
     7
 65
   257
 75
     1
175
     1
 42
40.0
 92
        8
 66
     7
 43
1.0
 76
     1
 77
     6
 78
     2
 67
     7
 79
     3
170
     0
171
     0
290
     0
174
     0
 93
        1
 44
0.0
173
     0
291
     0
 45
0.0
1001
ACAD
1000
AcDbSavedByObjectVersion
1070
     0
  0
VISUALSTYLE
  5
35
102
{ACAD_REACTORS
330
2A
102
}
102
{ACAD_XDICTIONARY
360
288
102
}
330
2A
100
AcDbVisualStyle
  2
Dim
 70
    11
 71
     2
 72
     2
 73
     0
 90
        0
 40
-0.6
 41
-30.0
 62
     5
 63
     7
421
 16777215
 74
     1
 91
        4
 64
     7
 65
   257
 75
     1
175
     1
 42
1.0
 92
        8
 66
     7
 43
1.0
 76
     1
 77
     6
 78
     2
 67
     7
 79
     5
170
     0
171
     0
290
     0
174
     0
 93
        1
 44
-50.0
173
     0
291
     1
 45
0.0
1001
ACAD
1000
AcDbSavedByObjectVersion
1070
     0
  0
VISUALSTYLE
  5
39
102
{ACAD_REACTORS
330
2A
102
}
102
{ACAD_XDICTIONARY
360
290
102
}
330
2A
100
AcDbVisualStyle
  2
Facepattern
 70
    15
 71
     2
 72
     2
 73
     0
 90
        0
 40
-0.6
 41
-30.0
 62
     5
 63
     7
421
 16777215
 74
     1
 91
        4
 64
     7
 65
   257
 75
     1
175
     1
 42
1.0
 92
        8
 66
     7
 43
1.0
 76
     1
 77
     6
 78
     2
 67
     7
 79
     5
170
     0
171
     0
290
     0
174
     0
 93
        1
 44
0.0
173
     0
291
     1
 45
0.0
1001
ACAD
1000
AcDbSavedByObjectVersion
1070
     0
  0
VISUALSTYLE
  5
2B
102
{ACAD_REACTORS
330
2A
102
}
102
{ACAD_XDICTIONARY
360
274
102
}
330
2A
100
AcDbVisualStyle
  2
Flat
 70
     0
 71
     2
 72
     1
 73
     1
 90
        2
 40
-0.6
 41
30.0
 62
     5
 63
     7
421
 16777215
 74
     0
 91
        4
 64
     7
 65
   257
 75
     1
175
     1
 42
1.0
 92
        8
 66
     7
 43
1.0
 76
     1
 77
     6
 78
     2
 67
     7
 79
     5
170
     0
171
     0
290
     0
174
     0
 93
       13
 44
0.0
173
     0
291
     1
 45
0.0
1001
ACAD
1000
AcDbSavedByObjectVersion
1070
     0
  0
VISUALSTYLE
  5
2C
102
{ACAD_REACTORS
330
2A
102
}
102
{ACAD_XDICTIONARY
360
276
102
}
330
2A
100
AcDbVisualStyle
  2
FlatWithEdges
 70
     1
 71
     2
 72
     1
 73
     1
 90
        2
 40
-0.6
 41
30.0
 62
     5
 63
     7
421
 16777215
 74
     1
 91
        4
 64
     7
 65
   257
 75
     1
175
     1
 42
1.0
 92
        0
 66
   257
 43
1.0
 76
     1
 77
     6
 78
     2
 67
     7
 79
     5
170
     0
171
     0
290
     0
174
     0
 93
       13
 44
0.0
173
     0
291
     1
 45
0.0
1001
ACAD
1000
AcDbSavedByObjectVersion
1070
     0
  0
VISUALSTYLE
  5
2D
102
{ACAD_REACTORS
330
2A
102
}
102
{ACAD_XDICTIONARY
360
278
102
}
330
2A
100
AcDbVisualStyle
  2
Gouraud
 70
     2
 71
     2
 72
     2
 73
     1
 90
        2
 40
-0.6
 41
30.0
 62
     5
 63
     7
421
 16777215
 74
     0
 91
        4
 64
     7
 65
   257
 75
     1
175
     1
 42
1.0
 92
        0
 66
     7
 43
1.0
 76
     1
 77
     6
 78
     2
 67
     7
 79
     5
170
     0
171
     0
290
     0
174
     0
 93
       13
 44
0.0
173
     0
291
     1
 45
0.0
1001
ACAD
1000
AcDbSavedByObjectVersion
1070
     0
  0
VISUALSTYLE
  5
2E
102
{ACAD_REACTORS
330
2A
102
}
102
{ACAD_XDICTIONARY
360
27A
102
}
330
2A
100
AcDbVisualStyle
  2
GouraudWithEdges
 70
     3
 71
     2
 72
     2
 73
     1
 90
        2
 40
-0.6
 41
30.0
 62
     5
 63
     7
421
 16777215
 74
     1
 91
        4
 64
     7
 65
   257
 75
     1
175
     1
 42
1.0
 92
        0
 66
   257
 43
1.0
 76
     1
 77
     6
 78
     2
 67
     7
 79
     5
170
     0
171
     0
290
     0
174
     0
 93
       13
 44
0.0
173
     0
291
     1
 45
0.0
1001
ACAD
1000
AcDbSavedByObjectVersion
1070
     0
  0
VISUALSTYLE
  5
38
102
{ACAD_REACTORS
330
2A
102
}
102
{ACAD_XDICTIONARY
360
28E
102
}
330
2A
100
AcDbVisualStyle
  2
Linepattern
 70
    14
 71
     2
 72
     2
 73
     0
 90
        0
 40
-0.6
 41
-30.0
 62
     5
 63
     7
421
 16777215
 74
     1
 91
        4
 64
     7
 65
   257
 75
     7
175
     7
 42
1.0
 92
        8
 66
     7
 43
1.0
 76
     1
 77
     6
 78
     2
 67
     7
 79
     5
170
     0
171
     0
290
     0
174
     0
 93
        1
 44
0.0
173
     0
291
     1
 45
0.0
1001
ACAD
1000
AcDbSavedByObjectVersion
1070
     0
  0
VISUALSTYLE
  5
33
102
{ACAD_REACTORS
330
2A
102
}
102
{ACAD_XDICTIONARY
360
284
102
}
330
2A
100
AcDbVisualStyle
  2
Realistic
 70
     8
 71
     2
 72
     2
 73
     0
 90
        0
 40
-0.6
 41
-30.0
 62
     5
 63
     7
421
 16777215
 74
     1
 91
        0
 64
     7
 65
   257
 75
     1
175
     1
 42
1.0
 92
        8
 66
     8
424
  7895160
 43
1.0
 76
     1
 77
     6
 78
     2
 67
     7
 79
     5
170
     0
171
     0
290
     0
174
     0
 93
       13
 44
0.0
173
     0
291
     0
 45
0.0
1001
ACAD
1000
AcDbSavedByObjectVersion
1070
     0
  0
VISUALSTYLE
  5
37
102
{ACAD_REACTORS
330
2A
102
}
102
{ACAD_XDICTIONARY
360
28C
102
}
330
2A
100
AcDbVisualStyle
  2
Thicken
 70
    13
 71
     2
 72
     2
 73
     0
 90
        0
 40
-0.6
 41
-30.0
 62
     5
 63
     7
421
 16777215
 74
     1
 91
        4
 64
     7
 65
   257
 75
     1
175
     1
 42
1.0
 92
       12
 66
     7
 43
1.0
 76
     1
 77
     6
 78
     2
 67
     7
 79
     5
170
     0
171
     0
290
     0
174
     0
 93
        1
 44
0.0
173
     0
291
     1
 45
0.0
1001
ACAD
1000
AcDbSavedByObjectVersion
1070
     0
  0
DICTIONARY
  5
296
330
3D
100
AcDbDictionary
280
     1
281
     1
  3
ACAD_XREC_ROUNDTRIP
360
297
  0
DICTIONARY
  5
294
330
3C
100
AcDbDictionary
280
     1
281
     1
  3
ACAD_XREC_ROUNDTRIP
360
295
  0
DICTIONARY
  5
298
330
3E
100
AcDbDictionary
280
     1
281
     1
  3
ACAD_XREC_ROUNDTRIP
360
299
  0
DICTIONARY
  5
27C
330
2F
100
AcDbDictionary
280
     1
281
     1
  3
ACAD_XREC_ROUNDTRIP
360
27D
  0
DICTIONARY
  5
280
330
31
100
AcDbDictionary
280
     1
281
     1
  3
ACAD_XREC_ROUNDTRIP
360
281
  0
DICTIONARY
  5
27E
330
30
100
AcDbDictionary
280
     1
281
     1
  3
ACAD_XREC_ROUNDTRIP
360
27F
  0
DICTIONARY
  5
282
330
32
100
AcDbDictionary
280
     1
281
     1
  3
ACAD_XREC_ROUNDTRIP
360
283
  0
DICTIONARY
  5
28A
330
36
100
AcDbDictionary
280
     1
281
     1
  3
ACAD_XREC_ROUNDTRIP
360
28B
  0
DICTIONARY
  5
292
330
3A
100
AcDbDictionary
280
     1
281
     1
  3
ACAD_XREC_ROUNDTRIP
360
293
  0
DICTIONARY
  5
286
330
34
100
AcDbDictionary
280
     1
281
     1
  3
ACAD_XREC_ROUNDTRIP
360
287
  0
DICTIONARY
  5
288
330
35
100
AcDbDictionary
280
     1
281
     1
  3
ACAD_XREC_ROUNDTRIP
360
289
  0
DICTIONARY
  5
290
330
39
100
AcDbDictionary
280
     1
281
     1
  3
ACAD_XREC_ROUNDTRIP
360
291
  0
DICTIONARY
  5
274
330
2B
100
AcDbDictionary
280
     1
281
     1
  3
ACAD_XREC_ROUNDTRIP
360
275
  0
DICTIONARY
  5
276
330
2C
100
AcDbDictionary
280
     1
281
     1
  3
ACAD_XREC_ROUNDTRIP
360
277
  0
DICTIONARY
  5
278
330
2D
100
AcDbDictionary
280
     1
281
     1
  3
ACAD_XREC_ROUNDTRIP
360
279
  0
DICTIONARY
  5
27A
330
2E
100
AcDbDictionary
280
     1
281
     1
  3
ACAD_XREC_ROUNDTRIP
360
27B
  0
DICTIONARY
  5
28E
330
38
100
AcDbDictionary
280
     1
281
     1
  3
ACAD_XREC_ROUNDTRIP
360
28F
  0
DICTIONARY
  5
284
330
33
100
AcDbDictionary
280
     1
281
     1
  3
ACAD_XREC_ROUNDTRIP
360
285
  0
DICTIONARY
  5
28C
330
37
100
AcDbDictionary
280
     1
281
     1
  3
ACAD_XREC_ROUNDTRIP
360
28D
  0
XRECORD
  5
297
102
{ACAD_REACTORS
330
296
102
}
330
296
100
AcDbXrecord
280
     1
102
MATERIAL
148
0.0
149
0.0
149
0.0
 93
        0
 94
      127
282
     0
 72
     1
 77
     1
171
     1
175
     1
179
     1
273
     0
  0
XRECORD
  5
295
102
{ACAD_REACTORS
330
294
102
}
330
294
100
AcDbXrecord
280
     1
102
MATERIAL
148
0.0
149
0.0
149
0.0
 93
        0
 94
      127
282
     0
 72
     1
 77
     1
171
     1
175
     1
179
     1
273
     0
  0
XRECORD
  5
299
102
{ACAD_REACTORS
330
298
102
}
330
298
100
AcDbXrecord
280
     1
102
MATERIAL
148
0.0
149
0.0
149
0.0
 93
        0
 94
      127
282
     0
 72
     1
 77
     1
171
     1
175
     1
179
     1
273
     0
  0
XRECORD
  5
27D
102
{ACAD_REACTORS
330
27C
102
}
330
27C
100
AcDbXrecord
280
     1
102
RTVSPropertyOp0
 70
     1
102
RTVSPropertyOp1
 70
     1
102
RTVSPropertyOp2
 70
     1
102
RTVSPropertyOp3
 70
     1
102
RTVSPropertyOp4
 70
     1
102
RTVSPropertyOp5
 70
     1
102
RTVSPropertyOp6
 70
     1
102
RTVSPropertyOp7
 70
     1
102
RTVSPropertyOp8
 70
     1
102
RTVSPropertyOp9
 70
     1
102
RTVSPropertyOp10
 70
     1
102
RTVSPropertyOp11
 70
     1
102
RTVSPropertyOp12
 70
     1
102
RTVSPropertyOp13
 70
     1
102
RTVSPropertyOp14
 70
     1
102
RTVSPropertyOp15
 70
     1
102
RTVSPropertyOp16
 70
     1
102
RTVSPropertyOp17
 70
     1
102
RTVSPropertyOp18
 70
     1
102
RTVSPropertyOp19
 70
     1
102
RTVSPropertyOp20
 70
     1
102
RTVSPropertyOp21
 70
     1
102
RTVSPropertyOp22
 70
     1
102
RTVSPropertyOp23
 70
     1
102
RTVSPropertyOp24
 70
     1
102
RTVSPropertyOp25
 70
     1
102
RTVSPropertyOp26
 70
     1
102
RTVSPropertyOp27
 70
     1
102
RTVSPropertyOp28
 70
     1
102
RTVSPropertyOp29
 70
     1
102
RTVSPropertyOp30
 70
     1
102
RTVSPropertyOp31
 70
     1
102
RTVSPropertyOp32
 70
     1
  0
XRECORD
  5
281
102
{ACAD_REACTORS
330
280
102
}
330
280
100
AcDbXrecord
280
     1
102
RTVSPropertyOp0
 70
     1
102
RTVSPropertyOp1
 70
     1
102
RTVSPropertyOp2
 70
     1
102
RTVSPropertyOp3
 70
     1
102
RTVSPropertyOp4
 70
     1
102
RTVSPropertyOp5
 70
     1
102
RTVSPropertyOp6
 70
     1
102
RTVSPropertyOp7
 70
     1
102
RTVSPropertyOp8
 70
     1
102
RTVSPropertyOp9
 70
     1
102
RTVSPropertyOp10
 70
     1
102
RTVSPropertyOp11
 70
     1
102
RTVSPropertyOp12
 70
     1
102
RTVSPropertyOp13
 70
     1
102
RTVSPropertyOp14
 70
     1
102
RTVSPropertyOp15
 70
     1
102
RTVSPropertyOp16
 70
     1
102
RTVSPropertyOp17
 70
     1
102
RTVSPropertyOp18
 70
     1
102
RTVSPropertyOp19
 70
     1
102
RTVSPropertyOp20
 70
     1
102
RTVSPropertyOp21
 70
     1
102
RTVSPropertyOp22
 70
     1
102
RTVSPropertyOp23
 70
     1
102
RTVSPropertyOp24
 70
     1
102
RTVSPropertyOp25
 70
     1
102
RTVSPropertyOp26
 70
     1
102
RTVSPropertyOp27
 70
     1
102
RTVSPropertyOp28
 70
     1
102
RTVSPropertyOp29
 70
     1
102
RTVSPropertyOp30
 70
     1
102
RTVSPropertyOp31
 70
     1
102
RTVSPropertyOp32
 70
     1
  0
XRECORD
  5
27F
102
{ACAD_REACTORS
330
27E
102
}
330
27E
100
AcDbXrecord
280
     1
102
RTVSPropertyOp0
 70
     1
102
RTVSPropertyOp1
 70
     1
102
RTVSPropertyOp2
 70
     1
102
RTVSPropertyOp3
 70
     1
102
RTVSPropertyOp4
 70
     1
102
RTVSPropertyOp5
 70
     1
102
RTVSPropertyOp6
 70
     1
102
RTVSPropertyOp7
 70
     1
102
RTVSPropertyOp8
 70
     1
102
RTVSPropertyOp9
 70
     1
102
RTVSPropertyOp10
 70
     1
102
RTVSPropertyOp11
 70
     1
102
RTVSPropertyOp12
 70
     1
102
RTVSPropertyOp13
 70
     1
102
RTVSPropertyOp14
 70
     1
102
RTVSPropertyOp15
 70
     1
102
RTVSPropertyOp16
 70
     1
102
RTVSPropertyOp17
 70
     1
102
RTVSPropertyOp18
 70
     1
102
RTVSPropertyOp19
 70
     1
102
RTVSPropertyOp20
 70
     1
102
RTVSPropertyOp21
 70
     1
102
RTVSPropertyOp22
 70
     1
102
RTVSPropertyOp23
 70
     1
102
RTVSPropertyOp24
 70
     1
102
RTVSPropertyOp25
 70
     1
102
RTVSPropertyOp26
 70
     1
102
RTVSPropertyOp27
 70
     1
102
RTVSPropertyOp28
 70
     1
102
RTVSPropertyOp29
 70
     1
102
RTVSPropertyOp30
 70
     1
102
RTVSPropertyOp31
 70
     1
102
RTVSPropertyOp32
 70
     1
  0
XRECORD
  5
283
102
{ACAD_REACTORS
330
282
102
}
330
282
100
AcDbXrecord
280
     1
102
RTVSPropertyOp0
 70
     1
102
RTVSPropertyOp1
 70
     1
102
RTVSPropertyOp2
 70
     1
102
RTVSPropertyOp3
 70
     1
102
RTVSPropertyOp4
 70
     1
102
RTVSPropertyOp5
 70
     1
102
RTVSPropertyOp6
 70
     1
102
RTVSPropertyOp7
 70
     1
102
RTVSPropertyOp8
 70
     1
102
RTVSPropertyOp9
 70
     1
102
RTVSPropertyOp10
 70
     1
102
RTVSPropertyOp11
 70
     1
102
RTVSPropertyOp12
 70
     1
102
RTVSPropertyOp13
 70
     1
102
RTVSPropertyOp14
 70
     1
102
RTVSPropertyOp15
 70
     1
102
RTVSPropertyOp16
 70
     1
102
RTVSPropertyOp17
 70
     1
102
RTVSPropertyOp18
 70
     1
102
RTVSPropertyOp19
 70
     1
102
RTVSPropertyOp20
 70
     1
102
RTVSPropertyOp21
 70
     1
102
RTVSPropertyOp22
 70
     1
102
RTVSPropertyOp23
 70
     1
102
RTVSPropertyOp24
 70
     1
102
RTVSPropertyOp25
 70
     1
102
RTVSPropertyOp26
 70
     1
102
RTVSPropertyOp27
 70
     1
102
RTVSPropertyOp28
 70
     1
102
RTVSPropertyOp29
 70
     1
102
RTVSPropertyOp30
 70
     1
102
RTVSPropertyOp31
 70
     1
102
RTVSPropertyOp32
 70
     1
  0
XRECORD
  5
28B
102
{ACAD_REACTORS
330
28A
102
}
330
28A
100
AcDbXrecord
280
     1
102
RTVSPropertyOp0
 70
     1
102
RTVSPropertyOp1
 70
     1
102
RTVSPropertyOp2
 70
     1
102
RTVSPropertyOp3
 70
     1
102
RTVSPropertyOp4
 70
     1
102
RTVSPropertyOp5
 70
     1
102
RTVSPropertyOp6
 70
     1
102
RTVSPropertyOp7
 70
     1
102
RTVSPropertyOp8
 70
     1
102
RTVSPropertyOp9
 70
     1
102
RTVSPropertyOp10
 70
     1
102
RTVSPropertyOp11
 70
     1
102
RTVSPropertyOp12
 70
     1
102
RTVSPropertyOp13
 70
     1
102
RTVSPropertyOp14
 70
     1
102
RTVSPropertyOp15
 70
     1
102
RTVSPropertyOp16
 70
     1
102
RTVSPropertyOp17
 70
     1
102
RTVSPropertyOp18
 70
     1
102
RTVSPropertyOp19
 70
     1
102
RTVSPropertyOp20
 70
     1
102
RTVSPropertyOp21
 70
     1
102
RTVSPropertyOp22
 70
     1
102
RTVSPropertyOp23
 70
     1
102
RTVSPropertyOp24
 70
     1
102
RTVSPropertyOp25
 70
     1
102
RTVSPropertyOp26
 70
     1
102
RTVSPropertyOp27
 70
     1
102
RTVSPropertyOp28
 70
     1
102
RTVSPropertyOp29
 70
     1
102
RTVSPropertyOp30
 70
     1
102
RTVSPropertyOp31
 70
     1
102
RTVSPropertyOp32
 70
     1
  0
XRECORD
  5
293
102
{ACAD_REACTORS
330
292
102
}
330
292
100
AcDbXrecord
280
     1
102
RTVSPropertyOp0
 70
     1
102
RTVSPropertyOp1
 70
     1
102
RTVSPropertyOp2
 70
     1
102
RTVSPropertyOp3
 70
     1
102
RTVSPropertyOp4
 70
     1
102
RTVSPropertyOp5
 70
     1
102
RTVSPropertyOp6
 70
     1
102
RTVSPropertyOp7
 70
     1
102
RTVSPropertyOp8
 70
     1
102
RTVSPropertyOp9
 70
     1
102
RTVSPropertyOp10
 70
     1
102
RTVSPropertyOp11
 70
     1
102
RTVSPropertyOp12
 70
     1
102
RTVSPropertyOp13
 70
     1
102
RTVSPropertyOp14
 70
     1
102
RTVSPropertyOp15
 70
     1
102
RTVSPropertyOp16
 70
     1
102
RTVSPropertyOp17
 70
     1
102
RTVSPropertyOp18
 70
     1
102
RTVSPropertyOp19
 70
     1
102
RTVSPropertyOp20
 70
     1
102
RTVSPropertyOp21
 70
     1
102
RTVSPropertyOp22
 70
     1
102
RTVSPropertyOp23
 70
     1
102
RTVSPropertyOp24
 70
     1
102
RTVSPropertyOp25
 70
     1
102
RTVSPropertyOp26
 70
     1
102
RTVSPropertyOp27
 70
     1
102
RTVSPropertyOp28
 70
     1
102
RTVSPropertyOp29
 70
     1
102
RTVSPropertyOp30
 70
     1
102
RTVSPropertyOp31
 70
     1
102
RTVSPropertyOp32
 70
     1
  0
XRECORD
  5
287
102
{ACAD_REACTORS
330
286
102
}
330
286
100
AcDbXrecord
280
     1
102
RTVSPropertyOp0
 70
     1
102
RTVSPropertyOp1
 70
     1
102
RTVSPropertyOp2
 70
     1
102
RTVSPropertyOp3
 70
     1
102
RTVSPropertyOp4
 70
     1
102
RTVSPropertyOp5
 70
     1
102
RTVSPropertyOp6
 70
     1
102
RTVSPropertyOp7
 70
     1
102
RTVSPropertyOp8
 70
     1
102
RTVSPropertyOp9
 70
     1
102
RTVSPropertyOp10
 70
     1
102
RTVSPropertyOp11
 70
     1
102
RTVSPropertyOp12
 70
     1
102
RTVSPropertyOp13
 70
     1
102
RTVSPropertyOp14
 70
     1
102
RTVSPropertyOp15
 70
     1
102
RTVSPropertyOp16
 70
     1
102
RTVSPropertyOp17
 70
     1
102
RTVSPropertyOp18
 70
     1
102
RTVSPropertyOp19
 70
     1
102
RTVSPropertyOp20
 70
     1
102
RTVSPropertyOp21
 70
     1
102
RTVSPropertyOp22
 70
     1
102
RTVSPropertyOp23
 70
     1
102
RTVSPropertyOp24
 70
     1
102
RTVSPropertyOp25
 70
     1
102
RTVSPropertyOp26
 70
     1
102
RTVSPropertyOp27
 70
     1
102
RTVSPropertyOp28
 70
     1
102
RTVSPropertyOp29
 70
     1
102
RTVSPropertyOp30
 70
     1
102
RTVSPropertyOp31
 70
     1
102
RTVSPropertyOp32
 70
     1
  0
XRECORD
  5
289
102
{ACAD_REACTORS
330
288
102
}
330
288
100
AcDbXrecord
280
     1
102
RTVSPropertyOp0
 70
     1
102
RTVSPropertyOp1
 70
     1
102
RTVSPropertyOp2
 70
     1
102
RTVSPropertyOp3
 70
     1
102
RTVSPropertyOp4
 70
     1
102
RTVSPropertyOp5
 70
     1
102
RTVSPropertyOp6
 70
     1
102
RTVSPropertyOp7
 70
     1
102
RTVSPropertyOp8
 70
     1
102
RTVSPropertyOp9
 70
     1
102
RTVSPropertyOp10
 70
     1
102
RTVSPropertyOp11
 70
     1
102
RTVSPropertyOp12
 70
     1
102
RTVSPropertyOp13
 70
     1
102
RTVSPropertyOp14
 70
     1
102
RTVSPropertyOp15
 70
     1
102
RTVSPropertyOp16
 70
     1
102
RTVSPropertyOp17
 70
     1
102
RTVSPropertyOp18
 70
     1
102
RTVSPropertyOp19
 70
     1
102
RTVSPropertyOp20
 70
     1
102
RTVSPropertyOp21
 70
     1
102
RTVSPropertyOp22
 70
     1
102
RTVSPropertyOp23
 70
     1
102
RTVSPropertyOp24
 70
     1
102
RTVSPropertyOp25
 70
     1
102
RTVSPropertyOp26
 70
     1
102
RTVSPropertyOp27
 70
     1
102
RTVSPropertyOp28
 70
     1
102
RTVSPropertyOp29
 70
     1
102
RTVSPropertyOp30
 70
     1
102
RTVSPropertyOp31
 70
     1
102
RTVSPropertyOp32
 70
     1
  0
XRECORD
  5
291
102
{ACAD_REACTORS
330
290
102
}
330
290
100
AcDbXrecord
280
     1
102
RTVSPropertyOp0
 70
     1
102
RTVSPropertyOp1
 70
     1
102
RTVSPropertyOp2
 70
     1
102
RTVSPropertyOp3
 70
     1
102
RTVSPropertyOp4
 70
     1
102
RTVSPropertyOp5
 70
     1
102
RTVSPropertyOp6
 70
     1
102
RTVSPropertyOp7
 70
     1
102
RTVSPropertyOp8
 70
     1
102
RTVSPropertyOp9
 70
     1
102
RTVSPropertyOp10
 70
     1
102
RTVSPropertyOp11
 70
     1
102
RTVSPropertyOp12
 70
     1
102
RTVSPropertyOp13
 70
     1
102
RTVSPropertyOp14
 70
     1
102
RTVSPropertyOp15
 70
     1
102
RTVSPropertyOp16
 70
     1
102
RTVSPropertyOp17
 70
     1
102
RTVSPropertyOp18
 70
     1
102
RTVSPropertyOp19
 70
     1
102
RTVSPropertyOp20
 70
     1
102
RTVSPropertyOp21
 70
     1
102
RTVSPropertyOp22
 70
     1
102
RTVSPropertyOp23
 70
     1
102
RTVSPropertyOp24
 70
     1
102
RTVSPropertyOp25
 70
     1
102
RTVSPropertyOp26
 70
     1
102
RTVSPropertyOp27
 70
     1
102
RTVSPropertyOp28
 70
     1
102
RTVSPropertyOp29
 70
     1
102
RTVSPropertyOp30
 70
     1
102
RTVSPropertyOp31
 70
     1
102
RTVSPropertyOp32
 70
     1
  0
XRECORD
  5
275
102
{ACAD_REACTORS
330
274
102
}
330
274
100
AcDbXrecord
280
     1
102
RTVSPropertyOp0
 70
     1
102
RTVSPropertyOp1
 70
     1
102
RTVSPropertyOp2
 70
     1
102
RTVSPropertyOp3
 70
     1
102
RTVSPropertyOp4
 70
     1
102
RTVSPropertyOp5
 70
     1
102
RTVSPropertyOp6
 70
     1
102
RTVSPropertyOp7
 70
     1
102
RTVSPropertyOp8
 70
     1
102
RTVSPropertyOp9
 70
     1
102
RTVSPropertyOp10
 70
     1
102
RTVSPropertyOp11
 70
     1
102
RTVSPropertyOp12
 70
     1
102
RTVSPropertyOp13
 70
     1
102
RTVSPropertyOp14
 70
     1
102
RTVSPropertyOp15
 70
     1
102
RTVSPropertyOp16
 70
     1
102
RTVSPropertyOp17
 70
     1
102
RTVSPropertyOp18
 70
     1
102
RTVSPropertyOp19
 70
     1
102
RTVSPropertyOp20
 70
     1
102
RTVSPropertyOp21
 70
     1
102
RTVSPropertyOp22
 70
     1
102
RTVSPropertyOp23
 70
     1
102
RTVSPropertyOp24
 70
     1
102
RTVSPropertyOp25
 70
     1
102
RTVSPropertyOp26
 70
     1
102
RTVSPropertyOp27
 70
     1
102
RTVSPropertyOp28
 70
     1
102
RTVSPropertyOp29
 70
     1
102
RTVSPropertyOp30
 70
     1
102
RTVSPropertyOp31
 70
     1
102
RTVSPropertyOp32
 70
     1
  0
XRECORD
  5
277
102
{ACAD_REACTORS
330
276
102
}
330
276
100
AcDbXrecord
280
     1
102
RTVSPropertyOp0
 70
     1
102
RTVSPropertyOp1
 70
     1
102
RTVSPropertyOp2
 70
     1
102
RTVSPropertyOp3
 70
     1
102
RTVSPropertyOp4
 70
     1
102
RTVSPropertyOp5
 70
     1
102
RTVSPropertyOp6
 70
     1
102
RTVSPropertyOp7
 70
     1
102
RTVSPropertyOp8
 70
     1
102
RTVSPropertyOp9
 70
     1
102
RTVSPropertyOp10
 70
     1
102
RTVSPropertyOp11
 70
     1
102
RTVSPropertyOp12
 70
     1
102
RTVSPropertyOp13
 70
     1
102
RTVSPropertyOp14
 70
     1
102
RTVSPropertyOp15
 70
     1
102
RTVSPropertyOp16
 70
     1
102
RTVSPropertyOp17
 70
     1
102
RTVSPropertyOp18
 70
     1
102
RTVSPropertyOp19
 70
     1
102
RTVSPropertyOp20
 70
     1
102
RTVSPropertyOp21
 70
     1
102
RTVSPropertyOp22
 70
     1
102
RTVSPropertyOp23
 70
     1
102
RTVSPropertyOp24
 70
     1
102
RTVSPropertyOp25
 70
     1
102
RTVSPropertyOp26
 70
     1
102
RTVSPropertyOp27
 70
     1
102
RTVSPropertyOp28
 70
     1
102
RTVSPropertyOp29
 70
     1
102
RTVSPropertyOp30
 70
     1
102
RTVSPropertyOp31
 70
     1
102
RTVSPropertyOp32
 70
     1
  0
XRECORD
  5
279
102
{ACAD_REACTORS
330
278
102
}
330
278
100
AcDbXrecord
280
     1
102
RTVSPropertyOp0
 70
     1
102
RTVSPropertyOp1
 70
     1
102
RTVSPropertyOp2
 70
     1
102
RTVSPropertyOp3
 70
     1
102
RTVSPropertyOp4
 70
     1
102
RTVSPropertyOp5
 70
     1
102
RTVSPropertyOp6
 70
     1
102
RTVSPropertyOp7
 70
     1
102
RTVSPropertyOp8
 70
     1
102
RTVSPropertyOp9
 70
     1
102
RTVSPropertyOp10
 70
     1
102
RTVSPropertyOp11
 70
     1
102
RTVSPropertyOp12
 70
     1
102
RTVSPropertyOp13
 70
     1
102
RTVSPropertyOp14
 70
     1
102
RTVSPropertyOp15
 70
     1
102
RTVSPropertyOp16
 70
     1
102
RTVSPropertyOp17
 70
     1
102
RTVSPropertyOp18
 70
     1
102
RTVSPropertyOp19
 70
     1
102
RTVSPropertyOp20
 70
     1
102
RTVSPropertyOp21
 70
     1
102
RTVSPropertyOp22
 70
     1
102
RTVSPropertyOp23
 70
     1
102
RTVSPropertyOp24
 70
     1
102
RTVSPropertyOp25
 70
     1
102
RTVSPropertyOp26
 70
     1
102
RTVSPropertyOp27
 70
     1
102
RTVSPropertyOp28
 70
     1
102
RTVSPropertyOp29
 70
     1
102
RTVSPropertyOp30
 70
     1
102
RTVSPropertyOp31
 70
     1
102
RTVSPropertyOp32
 70
     1
  0
XRECORD
  5
27B
102
{ACAD_REACTORS
330
27A
102
}
330
27A
100
AcDbXrecord
280
     1
102
RTVSPropertyOp0
 70
     1
102
RTVSPropertyOp1
 70
     1
102
RTVSPropertyOp2
 70
     1
102
RTVSPropertyOp3
 70
     1
102
RTVSPropertyOp4
 70
     1
102
RTVSPropertyOp5
 70
     1
102
RTVSPropertyOp6
 70
     1
102
RTVSPropertyOp7
 70
     1
102
RTVSPropertyOp8
 70
     1
102
RTVSPropertyOp9
 70
     1
102
RTVSPropertyOp10
 70
     1
102
RTVSPropertyOp11
 70
     1
102
RTVSPropertyOp12
 70
     1
102
RTVSPropertyOp13
 70
     1
102
RTVSPropertyOp14
 70
     1
102
RTVSPropertyOp15
 70
     1
102
RTVSPropertyOp16
 70
     1
102
RTVSPropertyOp17
 70
     1
102
RTVSPropertyOp18
 70
     1
102
RTVSPropertyOp19
 70
     1
102
RTVSPropertyOp20
 70
     1
102
RTVSPropertyOp21
 70
     1
102
RTVSPropertyOp22
 70
     1
102
RTVSPropertyOp23
 70
     1
102
RTVSPropertyOp24
 70
     1
102
RTVSPropertyOp25
 70
     1
102
RTVSPropertyOp26
 70
     1
102
RTVSPropertyOp27
 70
     1
102
RTVSPropertyOp28
 70
     1
102
RTVSPropertyOp29
 70
     1
102
RTVSPropertyOp30
 70
     1
102
RTVSPropertyOp31
 70
     1
102
RTVSPropertyOp32
 70
     1
  0
XRECORD
  5
28F
102
{ACAD_REACTORS
330
28E
102
}
330
28E
100
AcDbXrecord
280
     1
102
RTVSPropertyOp0
 70
     1
102
RTVSPropertyOp1
 70
     1
102
RTVSPropertyOp2
 70
     1
102
RTVSPropertyOp3
 70
     1
102
RTVSPropertyOp4
 70
     1
102
RTVSPropertyOp5
 70
     1
102
RTVSPropertyOp6
 70
     1
102
RTVSPropertyOp7
 70
     1
102
RTVSPropertyOp8
 70
     1
102
RTVSPropertyOp9
 70
     1
102
RTVSPropertyOp10
 70
     1
102
RTVSPropertyOp11
 70
     1
102
RTVSPropertyOp12
 70
     1
102
RTVSPropertyOp13
 70
     1
102
RTVSPropertyOp14
 70
     1
102
RTVSPropertyOp15
 70
     1
102
RTVSPropertyOp16
 70
     1
102
RTVSPropertyOp17
 70
     1
102
RTVSPropertyOp18
 70
     1
102
RTVSPropertyOp19
 70
     1
102
RTVSPropertyOp20
 70
     1
102
RTVSPropertyOp21
 70
     1
102
RTVSPropertyOp22
 70
     1
102
RTVSPropertyOp23
 70
     1
102
RTVSPropertyOp24
 70
     1
102
RTVSPropertyOp25
 70
     1
102
RTVSPropertyOp26
 70
     1
102
RTVSPropertyOp27
 70
     1
102
RTVSPropertyOp28
 70
     1
102
RTVSPropertyOp29
 70
     1
102
RTVSPropertyOp30
 70
     1
102
RTVSPropertyOp31
 70
     1
102
RTVSPropertyOp32
 70
     1
  0
XRECORD
  5
285
102
{ACAD_REACTORS
330
284
102
}
330
284
100
AcDbXrecord
280
     1
102
RTVSPropertyOp0
 70
     1
102
RTVSPropertyOp1
 70
     1
102
RTVSPropertyOp2
 70
     1
102
RTVSPropertyOp3
 70
     1
102
RTVSPropertyOp4
 70
     1
102
RTVSPropertyOp5
 70
     1
102
RTVSPropertyOp6
 70
     1
102
RTVSPropertyOp7
 70
     1
102
RTVSPropertyOp8
 70
     1
102
RTVSPropertyOp9
 70
     1
102
RTVSPropertyOp10
 70
     1
102
RTVSPropertyOp11
 70
     1
102
RTVSPropertyOp12
 70
     1
102
RTVSPropertyOp13
 70
     1
102
RTVSPropertyOp14
 70
     1
102
RTVSPropertyOp15
 70
     1
102
RTVSPropertyOp16
 70
     1
102
RTVSPropertyOp17
 70
     1
102
RTVSPropertyOp18
 70
     1
102
RTVSPropertyOp19
 70
     1
102
RTVSPropertyOp20
 70
     1
102
RTVSPropertyOp21
 70
     1
102
RTVSPropertyOp22
 70
     1
102
RTVSPropertyOp23
 70
     1
102
RTVSPropertyOp24
 70
     1
102
RTVSPropertyOp25
 70
     1
102
RTVSPropertyOp26
 70
     1
102
RTVSPropertyOp27
 70
     1
102
RTVSPropertyOp28
 70
     1
102
RTVSPropertyOp29
 70
     1
102
RTVSPropertyOp30
 70
     1
102
RTVSPropertyOp31
 70
     1
102
RTVSPropertyOp32
 70
     1
  0
XRECORD
  5
28D
102
{ACAD_REACTORS
330
28C
102
}
330
28C
100
AcDbXrecord
280
     1
102
RTVSPropertyOp0
 70
     1
102
RTVSPropertyOp1
 70
     1
102
RTVSPropertyOp2
 70
     1
102
RTVSPropertyOp3
 70
     1
102
RTVSPropertyOp4
 70
     1
102
RTVSPropertyOp5
 70
     1
102
RTVSPropertyOp6
 70
     1
102
RTVSPropertyOp7
 70
     1
102
RTVSPropertyOp8
 70
     1
102
RTVSPropertyOp9
 70
     1
102
RTVSPropertyOp10
 70
     1
102
RTVSPropertyOp11
 70
     1
102
RTVSPropertyOp12
 70
     1
102
RTVSPropertyOp13
 70
     1
102
RTVSPropertyOp14
 70
     1
102
RTVSPropertyOp15
 70
     1
102
RTVSPropertyOp16
 70
     1
102
RTVSPropertyOp17
 70
     1
102
RTVSPropertyOp18
 70
     1
102
RTVSPropertyOp19
 70
     1
102
RTVSPropertyOp20
 70
     1
102
RTVSPropertyOp21
 70
     1
102
RTVSPropertyOp22
 70
     1
102
RTVSPropertyOp23
 70
     1
102
RTVSPropertyOp24
 70
     1
102
RTVSPropertyOp25
 70
     1
102
RTVSPropertyOp26
 70
     1
102
RTVSPropertyOp27
 70
     1
102
RTVSPropertyOp28
 70
     1
102
RTVSPropertyOp29
 70
     1
102
RTVSPropertyOp30
 70
     1
102
RTVSPropertyOp31
 70
     1
102
RTVSPropertyOp32
 70
     1
  0
ENDSEC
  0
EOF
